Начать новую тему Ответить на тему
Статистика раздачи
Размер: 270.57 МБ | Добавлен: 26 мар 2019, 20:45 | Скачали: 0
Сидеров: 1  [0 байт/сек]    Личеров: 0  [0 байт/сек]
Пред. тема | След. тема 

Автор
Сообщение

СообщениеДобавлено: 26 мар 2019, 20:45 

Ответить с цитатой 


Anthem Lights / Anthem Lights



Жанр: Christian, Pop-Rock
Страна-производитель диска: U.S.A
Год издания диска: 2011
Издатель (лейбл): Provident Label
Страна: U.S.A
Аудиокодек: FLAC (*.flac)
Тип рипа: tracks+.cue
Битрейт аудио: lossless
Продолжительность: 00:37:05
Источник (релизер): what.cd
Наличие сканов в содержимом раздачи: да (PDF)
Треклист:
01. Can't Shut Up 4:09
02. I Wanna Know You Like That 3:21
03. Circles 3:52
04. Can't Get Over You 3:24
05. Stranger 4:24
06. Outta My Mind 3:43
07. Lifeline 2:47
08. Lighthouse 3:29
09. Freedom Into Slavery 3:47
10. Where The Light Is 3:51

Код:
Exact Audio Copy V1.0 beta 2 from 29. April 2011
EAC extraction logfile from 14. July 2011, 12:04
Anthem Lights / Anthem Lights
Used drive  : ATAPI   iHBS212   2   Adapter: 2  ID: 0
Read mode               : Secure
Utilize accurate stream : Yes
Defeat audio cache      : Yes
Make use of C2 pointers : No
Read offset correction                      : 6
Overread into Lead-In and Lead-Out          : No
Fill up missing offset samples with silence : Yes
Delete leading and trailing silent blocks   : No
Null samples used in CRC calculations       : Yes
Used interface                              : Native Win32 interface for Win NT & 2000
Gap handling                                : Appended to previous track
Used output format              : User Defined Encoder
Selected bitrate                : 896 kBit/s
Quality                         : High
Add ID3 tag                     : No
Command line compressor         : C:\Program Files (x86)\Exact Audio Copy\FLAC\FLAC.EXE
Additional command line options : -8 -V -T "ARTIST=%artist%" -T "TITLE=%title%" -T "ALBUM=%albumtitle%" -T "DATE=%year%" -T "TRACKNUMBER=%tracknr%" -T "GENRE=%genre%" -T "COMMENT=%comment%" %hascover%--picture="%coverfile%"%hascover% %source% -o %dest%
TOC of the extracted CD
     Track |   Start  |  Length  | Start sector | End sector
    ---------------------------------------------------------
        1  |  0:00.00 |  4:09.35 |         0    |    18709
        2  |  4:09.35 |  3:22.00 |     18710    |    33859
        3  |  7:31.35 |  3:54.27 |     33860    |    51436
        4  | 11:25.62 |  3:24.58 |     51437    |    66794
        5  | 14:50.45 |  4:26.37 |     66795    |    86781
        6  | 19:17.07 |  3:44.70 |     86782    |   103651
        7  | 23:02.02 |  2:50.03 |    103652    |   116404
        8  | 25:52.05 |  3:31.18 |    116405    |   132247
        9  | 29:23.23 |  3:50.43 |    132248    |   149540
       10  | 33:13.66 |  3:51.13 |    149541    |   166878
Track  1
     Filename Z:\Shared Music\Anthem Lights\Anthem Lights\ 01-Can’t Shut Up-Misc-2011.wav
     Pre-gap length  0:00:02.00
     Peak level 99.9 %
     Extraction speed 4.8 X
     Track quality 100.0 %
     Test CRC 2164AB72
     Copy CRC 2164AB72
     Track not present in AccurateRip database
     Copy OK
Track  2
     Filename Z:\Shared Music\Anthem Lights\Anthem Lights\ 02-I Wanna Know You Like That-Misc-2011.wav
     Peak level 99.8 %
     Extraction speed 6.3 X
     Track quality 100.0 %
     Test CRC 7D3D65E3
     Copy CRC 7D3D65E3
     Track not present in AccurateRip database
     Copy OK
Track  3
     Filename Z:\Shared Music\Anthem Lights\Anthem Lights\ 03-Circles-Misc-2011.wav
     Pre-gap length  0:00:00.89
     Peak level 99.9 %
     Extraction speed 5.7 X
     Track quality 99.9 %
     Test CRC D556BA0F
     Copy CRC D556BA0F
     Track not present in AccurateRip database
     Copy OK
Track  4
     Filename Z:\Shared Music\Anthem Lights\Anthem Lights\ 04-Can’t Get Over You-Misc-2011.wav
     Pre-gap length  0:00:02.02
     Peak level 99.8 %
     Extraction speed 6.9 X
     Track quality 100.0 %
     Test CRC EAED7816
     Copy CRC EAED7816
     Track not present in AccurateRip database
     Copy OK
Track  5
     Filename Z:\Shared Music\Anthem Lights\Anthem Lights\ 05-Stranger-Misc-2011.wav
     Pre-gap length  0:00:00.32
     Peak level 99.9 %
     Extraction speed 7.9 X
     Track quality 100.0 %
     Test CRC 2D88B292
     Copy CRC 2D88B292
     Track not present in AccurateRip database
     Copy OK
Track  6
     Filename Z:\Shared Music\Anthem Lights\Anthem Lights\ 06-Outta My Mind-Misc-2011.wav
     Pre-gap length  0:00:01.81
     Peak level 99.9 %
     Extraction speed 8.1 X
     Track quality 100.0 %
     Test CRC 5195DF21
     Copy CRC 5195DF21
     Track not present in AccurateRip database
     Copy OK
Track  7
     Filename Z:\Shared Music\Anthem Lights\Anthem Lights\ 07-Lifeline-Misc-2011.wav
     Pre-gap length  0:00:01.29
     Peak level 99.9 %
     Extraction speed 8.1 X
     Track quality 100.0 %
     Test CRC E37BB87C
     Copy CRC E37BB87C
     Track not present in AccurateRip database
     Copy OK
Track  8
     Filename Z:\Shared Music\Anthem Lights\Anthem Lights\ 08-Lighthouse-Misc-2011.wav
     Pre-gap length  0:00:02.20
     Peak level 99.9 %
     Extraction speed 8.6 X
     Track quality 100.0 %
     Test CRC A1160BD9
     Copy CRC A1160BD9
     Track not present in AccurateRip database
     Copy OK
Track  9
     Filename Z:\Shared Music\Anthem Lights\Anthem Lights\ 09-Freedom Into Slavery-Misc-2011.wav
     Pre-gap length  0:00:01.77
     Peak level 99.9 %
     Extraction speed 9.1 X
     Track quality 100.0 %
     Test CRC 9E766960
     Copy CRC 9E766960
     Track not present in AccurateRip database
     Copy OK
Track 10
     Filename Z:\Shared Music\Anthem Lights\Anthem Lights\ 10-Where the Light Is-Misc-2011.wav
     Pre-gap length  0:00:03.05
     Peak level 99.9 %
     Extraction speed 9.2 X
     Track quality 100.0 %
     Test CRC C10396AD
     Copy CRC C10396AD
     Track not present in AccurateRip database
     Copy OK
None of the tracks are present in the AccurateRip database
No errors occurred
End of status report
==== Log checksum AA9865C71027BC9F4485953071C81285E00AC657910DC410D94CBD8927083E82 ====
Код:
REM GENRE "Christian Rock"
REM DATE 2011
REM DISCID 9808B10A
REM COMMENT "ExactAudioCopy v1.0b2"
PERFORMER "Anthem Lights"
TITLE "Anthem Lights"
FILE "Anthem Lights\Anthem Lights\ 01-Can’t Shut Up-Misc-2011.wav" WAVE
  TRACK 01 AUDIO
    TITLE "Can’t Shut Up"
    PERFORMER "Anthem Lights"
    ISRC USA5W1100002
    INDEX 01 00:00:00
FILE "Anthem Lights\Anthem Lights\ 02-I Wanna Know You Like That-Misc-2011.wav" WAVE
  TRACK 02 AUDIO
    TITLE "I Wanna Know You Like That"
    PERFORMER "Anthem Lights"
    ISRC USA5W1100003
    INDEX 01 00:00:00
  TRACK 03 AUDIO
    TITLE "Circles"
    PERFORMER "Anthem Lights"
    ISRC USA5W1100004
    INDEX 00 03:21:08
FILE "Anthem Lights\Anthem Lights\ 03-Circles-Misc-2011.wav" WAVE
    INDEX 01 00:00:00
  TRACK 04 AUDIO
    TITLE "Can’t Get Over You"
    PERFORMER "Anthem Lights"
    ISRC USA5W1100005
    INDEX 00 03:52:25
FILE "Anthem Lights\Anthem Lights\ 04-Can’t Get Over You-Misc-2011.wav" WAVE
    INDEX 01 00:00:00
  TRACK 05 AUDIO
    TITLE "Stranger"
    PERFORMER "Anthem Lights"
    ISRC USA5W1100006
    INDEX 00 03:24:34
FILE "Anthem Lights\Anthem Lights\ 05-Stranger-Misc-2011.wav" WAVE
    INDEX 01 00:00:00
  TRACK 06 AUDIO
    TITLE "Outta My Mind"
    PERFORMER "Anthem Lights"
    ISRC USA5W1100007
    INDEX 00 04:24:51
FILE "Anthem Lights\Anthem Lights\ 06-Outta My Mind-Misc-2011.wav" WAVE
    INDEX 01 00:00:00
  TRACK 07 AUDIO
    TITLE "Lifeline"
    PERFORMER "Anthem Lights"
    ISRC USA5W1100008
    INDEX 00 03:43:48
FILE "Anthem Lights\Anthem Lights\ 07-Lifeline-Misc-2011.wav" WAVE
    INDEX 01 00:00:00
  TRACK 08 AUDIO
    TITLE "Lighthouse"
    PERFORMER "Anthem Lights"
    ISRC USA5W1100009
    INDEX 00 02:47:63
FILE "Anthem Lights\Anthem Lights\ 08-Lighthouse-Misc-2011.wav" WAVE
    INDEX 01 00:00:00
  TRACK 09 AUDIO
    TITLE "Freedom Into Slavery"
    PERFORMER "Anthem Lights"
    ISRC USA5W1100010
    INDEX 00 03:29:35
FILE "Anthem Lights\Anthem Lights\ 09-Freedom Into Slavery-Misc-2011.wav" WAVE
    INDEX 01 00:00:00
  TRACK 10 AUDIO
    TITLE "Where the Light Is"
    PERFORMER "Anthem Lights"
    ISRC USA5W1100011
    INDEX 00 03:47:39
FILE "Anthem Lights\Anthem Lights\ 10-Where the Light Is-Misc-2011.wav" WAVE
    INDEX 01 00:00:00
Правила, инструкции, FAQ!!!
Торрент  Добавлен [26 мар 2019, 20:45] Скачать торрент Магнет ссылка
Скачать торрент
[ Размер 11.9 КБ / Просмотров 2 ]

Статус
Проверен 
 
Размер  270.57 МБ
Приватный: Нет (DHT включён)
.torrent скачан  0
 


     Отправить личное сообщение
   
Страница 1 из 1
Показать сообщения за:  Поле сортировки  
Начать новую тему Ответить на тему


Сейчас этот форум просматривают: нет зарегистрированных пользователей и гости: 0


Вы не можете начинать темы
Вы не можете отвечать на сообщения
Вы не можете редактировать свои сообщения
Вы не можете удалять свои сообщения
Вы не можете добавлять вложения

Перейти:  
cron