Начать новую тему Ответить на тему
Статистика раздачи
Размер: 771.18 МБ | Добавлен: 12 мар 2021, 21:57 | Скачали: 1
Сидеров: 7  [0 байт/сек]    Личеров: 2  [0 байт/сек]
Пред. тема | След. тема 

Автор
Сообщение

СообщениеДобавлено: 12 мар 2021, 21:57 

Ответить с цитатой 

VA / Chicago Blues: The Absolutely Essential 3 CD Collection
#777Жанр: Chicago Blues
Носитель: CD
Страна-производитель диска (релиза): UK
Год издания: 2012
Издатель (лейбл): Big3
Номер по каталогу: BT3061
Страна исполнителя (группы): US
Аудиокодек: FLAC (*.flac)
Тип рипа: tracks+.cue
Продолжительность: 02:47:03
Источник: nikalai
Наличие сканов в содержимом раздачи: да, с сети
Треклист:
#777Трeклист:
01. Muddy Waters - Mannish Boy (2:58)
02. Howlin' Wolf - The Red Rooster (2:28)
03. Sonny Boy Williamson II - Fattening Frogs For Snakes (2:22)
04. Buddy Guy - Sit And Cry (The Blues) (3:04)
05. Walter Horton - Need My Baby (2:19)
06. Jimmy Reed - Honest I Do (2:42)
07. Jimmy Rogers - That's All Right (2:52)
08. Billy Boy Arnold - I Ain't Got You (2:18)
09. James Cotton - Cotton Crop Blues (3:01)
10. Otis Rush - I Can't Quit You Baby (3:41)
11. Willie Dixon - Pain In My Heart (3:24)
12. Billy Emerson - If Lovin' is Believing (2:16)
13. Eddie Boyd - Five Long Years (2:46)
14. Junior Wells - Hoodoo Man (3:06)
15. Willie Wells - I Don't Know (3:09)
16. John Brim - Be Careful What You Do (2:41)
17. Etta James - Spoonful (2:50)
18. Muddy Waters - Just Make Love To Me (I Just Want To Make Love To You) (2:49)
19. Willie Mabon - The Seventh Son (2:53)
20. Elmore James - I Can't Hold Out (2:16)
Код:
Exact Audio Copy V1.5 from 20. February 2020
EAC extraction logfile from 8. September 2020, 23:55
Various Artists / Chicago Blues: The Absolutely Essential 3 CD Collection (Disc 1)
Used drive  : SlimtypeeBAU108  7 L   Adapter: 1  ID: 0
Read mode               : Secure
Utilize accurate stream : Yes
Defeat audio cache      : Yes
Make use of C2 pointers : No
Read offset correction                      : 6
Overread into Lead-In and Lead-Out          : No
Fill up missing offset samples with silence : Yes
Delete leading and trailing silent blocks   : No
Null samples used in CRC calculations       : Yes
Used interface                              : Native Win32 interface for Win NT & 2000
Gap handling                                : Appended to previous track
Used output format              : User Defined Encoder
Selected bitrate                : 1024 kBit/s
Quality                         : High
Add ID3 tag                     : No
Command line compressor         : C:\Temp\flac-1.3.2-win\win64\flac.exe
Additional command line options : -6 -V -T "ARTIST=%artist%" -T "TITLE=%title%" -T "ALBUM=%albumtitle%" -T "DATE=%year%" -T "TRACKNUMBER=%tracknr%" -T "GENRE=%genre%" -T "COMMENT=%comment%" -T "BAND=%albuminterpret%" -T "ALBUMARTIST=%albuminterpret%" -T "COMPOSER=%composer%" %haslyrics%--tag-from-file=LYRICS="%lyricsfile%"%haslyrics% -T "DISCNUMBER=%cdnumber%" -T "TOTALDISCS=%totalcds%" -T "TOTALTRACKS=%numtracks%" %hascover%--picture="%coverfile%"%hascover% %source% -o %dest%
TOC of the extracted CD
     Track |   Start  |  Length  | Start sector | End sector
    ---------------------------------------------------------
        1  |  0:00.00 |  2:57.40 |         0    |    13314
        2  |  2:57.40 |  2:27.48 |     13315    |    24387
        3  |  5:25.13 |  2:21.66 |     24388    |    35028
        4  |  7:47.04 |  3:04.02 |     35029    |    48830
        5  | 10:51.06 |  2:18.58 |     48831    |    59238
        6  | 13:09.64 |  2:41.62 |     59239    |    71375
        7  | 15:51.51 |  2:52.24 |     71376    |    84299
        8  | 18:44.00 |  2:18.19 |     84300    |    94668
        9  | 21:02.19 |  3:00.74 |     94669    |   108242
       10  | 24:03.18 |  3:40.53 |    108243    |   124795
       11  | 27:43.71 |  3:24.24 |    124796    |   140119
       12  | 31:08.20 |  2:16.35 |    140120    |   150354
       13  | 33:24.55 |  2:46.05 |    150355    |   162809
       14  | 36:10.60 |  3:06.12 |    162810    |   176771
       15  | 39:16.72 |  3:09.07 |    176772    |   190953
       16  | 42:26.04 |  2:40.62 |    190954    |   203015
       17  | 45:06.66 |  2:49.63 |    203016    |   215753
       18  | 47:56.54 |  2:48.41 |    215754    |   228394
       19  | 50:45.20 |  2:53.23 |    228395    |   241392
       20  | 53:38.43 |  2:16.01 |    241393    |   251593
Track  1
     Filename Z:\Personal\My ripps\Various Artists - Chicago Blues - The Absolutely Essential 3 CD Collection\Disc 1\01 - Muddy Waters -  Mannish Boy.wav
     Pre-gap length  0:00:02.00
     Peak level 99.9 %
     Extraction speed 1.9 X
     Track quality 100.0 %
     Test CRC 5C171CC0
     Copy CRC 5C171CC0
     Accurately ripped (confidence 2)  [CF9B13AF]  (AR v2)
     Copy OK
Track  2
     Filename Z:\Personal\My ripps\Various Artists - Chicago Blues - The Absolutely Essential 3 CD Collection\Disc 1\02 - Howlin' Wolf -  The Red Rooster.wav
     Peak level 99.9 %
     Extraction speed 1.9 X
     Track quality 100.0 %
     Test CRC D3CBCE1F
     Copy CRC D3CBCE1F
     Accurately ripped (confidence 2)  [9AFB09D3]  (AR v2)
     Copy OK
Track  3
     Filename Z:\Personal\My ripps\Various Artists - Chicago Blues - The Absolutely Essential 3 CD Collection\Disc 1\03 - Sonny Boy Williamson II -  Fattening Frogs For Snakes.wav
     Peak level 99.9 %
     Extraction speed 2.0 X
     Track quality 100.0 %
     Test CRC 0898A0A0
     Copy CRC 0898A0A0
     Accurately ripped (confidence 2)  [69EEC4AB]  (AR v2)
     Copy OK
Track  4
     Filename Z:\Personal\My ripps\Various Artists - Chicago Blues - The Absolutely Essential 3 CD Collection\Disc 1\04 - Buddy Guy -  Sit And Cry (The Blues).wav
     Peak level 99.9 %
     Extraction speed 2.2 X
     Track quality 100.0 %
     Test CRC D5D4A434
     Copy CRC D5D4A434
     Accurately ripped (confidence 2)  [9C60C3FF]  (AR v2)
     Copy OK
Track  5
     Filename Z:\Personal\My ripps\Various Artists - Chicago Blues - The Absolutely Essential 3 CD Collection\Disc 1\05 - Walter Horton -  Need My Baby.wav
     Peak level 99.9 %
     Extraction speed 1.5 X
     Track quality 99.9 %
     Test CRC 494F17E2
     Copy CRC 494F17E2
     Accurately ripped (confidence 2)  [97790F69]  (AR v2)
     Copy OK
Track  6
     Filename Z:\Personal\My ripps\Various Artists - Chicago Blues - The Absolutely Essential 3 CD Collection\Disc 1\06 - Jimmy Reed -  Honest I Do.wav
     Peak level 99.9 %
     Extraction speed 2.4 X
     Track quality 100.0 %
     Test CRC 6D08CB87
     Copy CRC 6D08CB87
     Accurately ripped (confidence 2)  [B1B7315C]  (AR v2)
     Copy OK
Track  7
     Filename Z:\Personal\My ripps\Various Artists - Chicago Blues - The Absolutely Essential 3 CD Collection\Disc 1\07 - Jimmy Rogers -  That's All Right.wav
     Peak level 99.9 %
     Extraction speed 1.8 X
     Track quality 99.9 %
     Test CRC 990316E6
     Copy CRC 990316E6
     Accurately ripped (confidence 2)  [22C27A9A]  (AR v2)
     Copy OK
Track  8
     Filename Z:\Personal\My ripps\Various Artists - Chicago Blues - The Absolutely Essential 3 CD Collection\Disc 1\08 - Billy Boy Arnold -  I Ain't Got You.wav
     Peak level 99.9 %
     Extraction speed 2.5 X
     Track quality 100.0 %
     Test CRC 414D6A0D
     Copy CRC 414D6A0D
     Accurately ripped (confidence 2)  [DF0F35CD]  (AR v2)
     Copy OK
Track  9
     Filename Z:\Personal\My ripps\Various Artists - Chicago Blues - The Absolutely Essential 3 CD Collection\Disc 1\09 - James Cotton -  Cotton Crop Blues.wav
     Peak level 99.9 %
     Extraction speed 2.7 X
     Track quality 100.0 %
     Test CRC D62E0BC0
     Copy CRC D62E0BC0
     Accurately ripped (confidence 2)  [317349FB]  (AR v2)
     Copy OK
Track 10
     Filename Z:\Personal\My ripps\Various Artists - Chicago Blues - The Absolutely Essential 3 CD Collection\Disc 1\10 - Otis Rush -  I Can't Quit You Baby.wav
     Peak level 99.9 %
     Extraction speed 2.9 X
     Track quality 100.0 %
     Test CRC 2F399446
     Copy CRC 2F399446
     Accurately ripped (confidence 2)  [B44DEE8D]  (AR v2)
     Copy OK
Track 11
     Filename Z:\Personal\My ripps\Various Artists - Chicago Blues - The Absolutely Essential 3 CD Collection\Disc 1\11 - Willie Dixon -  Pain In My Heart.wav
     Peak level 99.9 %
     Extraction speed 3.0 X
     Track quality 100.0 %
     Test CRC B8BF9AA8
     Copy CRC B8BF9AA8
     Accurately ripped (confidence 2)  [820E7D62]  (AR v2)
     Copy OK
Track 12
     Filename Z:\Personal\My ripps\Various Artists - Chicago Blues - The Absolutely Essential 3 CD Collection\Disc 1\12 - Billy Emerson -  If Lovin' is Believing.wav
     Peak level 99.9 %
     Extraction speed 1.9 X
     Track quality 99.9 %
     Test CRC 14ECA169
     Copy CRC 14ECA169
     Accurately ripped (confidence 2)  [19D15BB0]  (AR v2)
     Copy OK
Track 13
     Filename Z:\Personal\My ripps\Various Artists - Chicago Blues - The Absolutely Essential 3 CD Collection\Disc 1\13 - Eddie Boyd -  Five Long Years.wav
     Peak level 99.9 %
     Extraction speed 3.0 X
     Track quality 100.0 %
     Test CRC D0236F93
     Copy CRC D0236F93
     Accurately ripped (confidence 2)  [F8784ABD]  (AR v2)
     Copy OK
Track 14
     Filename Z:\Personal\My ripps\Various Artists - Chicago Blues - The Absolutely Essential 3 CD Collection\Disc 1\14 - Junior Wells -  Hoodoo Man.wav
     Peak level 99.9 %
     Extraction speed 3.2 X
     Track quality 100.0 %
     Test CRC 49379F21
     Copy CRC 49379F21
     Accurately ripped (confidence 2)  [C90588B0]  (AR v2)
     Copy OK
Track 15
     Filename Z:\Personal\My ripps\Various Artists - Chicago Blues - The Absolutely Essential 3 CD Collection\Disc 1\15 - Willie Wells -  I Don't Know.wav
     Peak level 99.9 %
     Extraction speed 3.2 X
     Track quality 100.0 %
     Test CRC 9866F929
     Copy CRC 9866F929
     Accurately ripped (confidence 2)  [8F078AED]  (AR v2)
     Copy OK
Track 16
     Filename Z:\Personal\My ripps\Various Artists - Chicago Blues - The Absolutely Essential 3 CD Collection\Disc 1\16 - John Brim -  Be Careful What You Do.wav
     Peak level 99.9 %
     Extraction speed 3.2 X
     Track quality 100.0 %
     Test CRC 67647447
     Copy CRC 67647447
     Accurately ripped (confidence 2)  [2AA8B446]  (AR v2)
     Copy OK
Track 17
     Filename Z:\Personal\My ripps\Various Artists - Chicago Blues - The Absolutely Essential 3 CD Collection\Disc 1\17 - Etta James -  Spoonful.wav
     Peak level 99.9 %
     Extraction speed 3.3 X
     Track quality 100.0 %
     Test CRC 7AD7FBEC
     Copy CRC 7AD7FBEC
     Accurately ripped (confidence 2)  [D7B9B4FD]  (AR v2)
     Copy OK
Track 18
     Filename Z:\Personal\My ripps\Various Artists - Chicago Blues - The Absolutely Essential 3 CD Collection\Disc 1\18 - Muddy Waters -  Just Make Love To Me (I Just Want To Make Love To You).wav
     Peak level 99.9 %
     Extraction speed 3.4 X
     Track quality 100.0 %
     Test CRC D7D3544D
     Copy CRC D7D3544D
     Accurately ripped (confidence 2)  [43DFC8D2]  (AR v2)
     Copy OK
Track 19
     Filename Z:\Personal\My ripps\Various Artists - Chicago Blues - The Absolutely Essential 3 CD Collection\Disc 1\19 - Willie Mabon -  The Seventh Son.wav
     Peak level 99.9 %
     Extraction speed 2.5 X
     Track quality 99.9 %
     Test CRC 5E3CF85E
     Copy CRC 5E3CF85E
     Accurately ripped (confidence 2)  [03F637C0]  (AR v2)
     Copy OK
Track 20
     Filename Z:\Personal\My ripps\Various Artists - Chicago Blues - The Absolutely Essential 3 CD Collection\Disc 1\20 - Elmore James -  I Can't Hold Out.wav
     Peak level 99.9 %
     Extraction speed 3.3 X
     Track quality 100.0 %
     Test CRC 53D66F7B
     Copy CRC 53D66F7B
     Accurately ripped (confidence 2)  [08C3A0D2]  (AR v2)
     Copy OK
All tracks accurately ripped
No errors occurred
End of status report
---- CUETools DB Plugin V2.1.6
[CTDB TOCID: WQq_mHFqM9OO6nBJqx5VNRqCbNM-] found
Submit result: already submitted
Track | CTDB Status
  1   | (20/20) Accurately ripped
  2   | (20/20) Accurately ripped
  3   | (20/20) Accurately ripped
  4   | (20/20) Accurately ripped
  5   | (20/20) Accurately ripped
  6   | (20/20) Accurately ripped
  7   | (20/20) Accurately ripped
  8   | (20/20) Accurately ripped
  9   | (20/20) Accurately ripped
 10   | (20/20) Accurately ripped
 11   | (20/20) Accurately ripped
 12   | (20/20) Accurately ripped
 13   | (20/20) Accurately ripped
 14   | (20/20) Accurately ripped
 15   | (20/20) Accurately ripped
 16   | (20/20) Accurately ripped
 17   | (20/20) Accurately ripped
 18   | (20/20) Accurately ripped
 19   | (20/20) Accurately ripped
 20   | (20/20) Accurately ripped
==== Log checksum AC27B7718BB32608D9B9683F9CD2251FF965FCBF38B0E0DD4F86B78DF0EE6A42 ====
Код:
REM GENRE Blues
REM DATE 2012
REM DISCID 220D1A14
REM COMMENT "ExactAudioCopy v1.5"
PERFORMER "Various Artists"
TITLE "Chicago Blues: The Absolutely Essential 3 CD Collection (Disc 1)"
REM COMPOSER ""
FILE "01 - Muddy Waters -  Mannish Boy.wav" WAVE
  TRACK 01 AUDIO
    TITLE "Mannish Boy"
    PERFORMER "Muddy Waters"
    REM COMPOSER "Willie Dixon/Ellas McDaniel"
    ISRC GBEEJ0600275
    INDEX 01 00:00:00
FILE "02 - Howlin' Wolf -  The Red Rooster.wav" WAVE
  TRACK 02 AUDIO
    TITLE "The Red Rooster"
    PERFORMER "Howlin' Wolf"
    REM COMPOSER "Willie Dixon"
    ISRC GBEEJ1200312
    INDEX 01 00:00:00
FILE "03 - Sonny Boy Williamson II -  Fattening Frogs For Snakes.wav" WAVE
  TRACK 03 AUDIO
    TITLE "Fattening Frogs For Snakes"
    PERFORMER "Sonny Boy Williamson II"
    REM COMPOSER "Sonny Boy Williamson II"
    ISRC GBEEJ0801280
    INDEX 01 00:00:00
FILE "04 - Buddy Guy -  Sit And Cry (The Blues).wav" WAVE
  TRACK 04 AUDIO
    TITLE "Sit And Cry (The Blues)"
    PERFORMER "Buddy Guy"
    REM COMPOSER "Willie Dixon"
    ISRC GBEEJ0900632
    INDEX 01 00:00:00
FILE "05 - Walter Horton -  Need My Baby.wav" WAVE
  TRACK 05 AUDIO
    TITLE "Need My Baby"
    PERFORMER "Walter Horton"
    REM COMPOSER "Walter Horton"
    ISRC GBEEJ0801269
    INDEX 01 00:00:00
FILE "06 - Jimmy Reed -  Honest I Do.wav" WAVE
  TRACK 06 AUDIO
    TITLE "Honest I Do"
    PERFORMER "Jimmy Reed"
    REM COMPOSER "Jimmy Reed"
    ISRC GBEEJ0901842
    INDEX 01 00:00:00
FILE "07 - Jimmy Rogers -  That's All Right.wav" WAVE
  TRACK 07 AUDIO
    TITLE "That's All Right"
    PERFORMER "Jimmy Rogers"
    REM COMPOSER "Jimmy Reed"
    ISRC GBEEJ0702135
    INDEX 01 00:00:00
FILE "08 - Billy Boy Arnold -  I Ain't Got You.wav" WAVE
  TRACK 08 AUDIO
    TITLE "I Ain't Got You"
    PERFORMER "Billy Boy Arnold"
    REM COMPOSER "Jimmy Reed"
    ISRC GBEEJ0901846
    INDEX 01 00:00:00
FILE "09 - James Cotton -  Cotton Crop Blues.wav" WAVE
  TRACK 09 AUDIO
    TITLE "Cotton Crop Blues"
    PERFORMER "James Cotton"
    REM COMPOSER "Jimmy Reed"
    ISRC GBEEJ0900635
    INDEX 01 00:00:00
FILE "10 - Otis Rush -  I Can't Quit You Baby.wav" WAVE
  TRACK 10 AUDIO
    TITLE "I Can't Quit You Baby"
    PERFORMER "Otis Rush"
    REM COMPOSER "Willie Dixon"
    ISRC GBEEJ0900481
    INDEX 01 00:00:00
FILE "11 - Willie Dixon -  Pain In My Heart.wav" WAVE
  TRACK 11 AUDIO
    TITLE "Pain In My Heart"
    PERFORMER "Willie Dixon"
    REM COMPOSER "Willie Dixon"
    ISRC GBEEJ1200267
    INDEX 01 00:00:00
FILE "12 - Billy Emerson -  If Lovin' is Believing.wav" WAVE
  TRACK 12 AUDIO
    TITLE "If Lovin' is Believing"
    PERFORMER "Billy Emerson"
    REM COMPOSER "Billy Emerson"
    ISRC GBEEJ0901848
    INDEX 01 00:00:00
FILE "13 - Eddie Boyd -  Five Long Years.wav" WAVE
  TRACK 13 AUDIO
    TITLE "Five Long Years"
    PERFORMER "Eddie Boyd"
    REM COMPOSER "Eddie Boyd"
    ISRC GBEEJ0901849
    INDEX 01 00:00:00
FILE "14 - Junior Wells -  Hoodoo Man.wav" WAVE
  TRACK 14 AUDIO
    TITLE "Hoodoo Man"
    PERFORMER "Junior Wells"
    REM COMPOSER "Sonny Boy Williamson II"
    ISRC GBEEJ0900637
    INDEX 01 00:00:00
FILE "15 - Willie Wells -  I Don't Know.wav" WAVE
  TRACK 15 AUDIO
    TITLE "I Don't Know"
    PERFORMER "Willie Wells"
    REM COMPOSER "Sonny Boy Williamson II"
    ISRC GBEEJ0901850
    INDEX 01 00:00:00
FILE "16 - John Brim -  Be Careful What You Do.wav" WAVE
  TRACK 16 AUDIO
    TITLE "Be Careful What You Do"
    PERFORMER "John Brim"
    REM COMPOSER "John Brim"
    ISRC GBEEJ1200288
    INDEX 01 00:00:00
FILE "17 - Etta James -  Spoonful.wav" WAVE
  TRACK 17 AUDIO
    TITLE "Spoonful"
    PERFORMER "Etta James"
    REM COMPOSER "Willie Dixon"
    ISRC GBEEJ1200486
    INDEX 01 00:00:00
FILE "18 - Muddy Waters -  Just Make Love To Me (I Just Want To Make Love To You).wav" WAVE
  TRACK 18 AUDIO
    TITLE "Just Make Love To Me (I Just Want To Make Love To You)"
    PERFORMER "Muddy Waters"
    REM COMPOSER "Willie Dixon"
    ISRC GBEEJ0600264
    INDEX 01 00:00:00
FILE "19 - Willie Mabon -  The Seventh Son.wav" WAVE
  TRACK 19 AUDIO
    TITLE "The Seventh Son"
    PERFORMER "Willie Mabon"
    REM COMPOSER "Willie Dixon"
    ISRC GBEEJ1200295
    INDEX 01 00:00:00
FILE "20 - Elmore James -  I Can't Hold Out.wav" WAVE
  TRACK 20 AUDIO
    TITLE "I Can't Hold Out"
    PERFORMER "Elmore James"
    REM COMPOSER "Elmore James"
    ISRC GBEEJ1200303
    INDEX 01 00:00:00
Код:
-----------------------
DON'T MODIFY THIS FILE
-----------------------
PERFORMER: auCDtect Task Manager, ver. 1.6.0 RC1 build 1.6.0.1
Copyright (c) 2008-2010 y-soft. All rights reserved
[url=http://y-soft.org]http://y-soft.org[/url]
ANALYZER: auCDtect: CD records authenticity detector, version 0.8.2
Copyright (c) 2004 Oleg Berngardt. All rights reserved.
Copyright (c) 2004 Alexander Djourik. All rights reserved.
FILE: 20 - Elmore James -  I Can't Hold Out.flac
  Size: 12492653 Hash: 27ABBA7E3F2751D4D438DDF429E0A95F Accuracy: -m0
  Conclusion: CDDA 100%
  Signature: E61C37D91B4EA3128F084A9BE5629178F37C6333
FILE: 19 - Willie Mabon -  The Seventh Son.flac
  Size: 15400269 Hash: 594820F38368CE02A55BB87A79DB6424 Accuracy: -m0
  Conclusion: CDDA 100%
  Signature: 62A7DAD9A801BB4D7C457825252B1489631F763C
FILE: 18 - Muddy Waters -  Just Make Love To Me (I Just Want To Make Love To You).flac
  Size: 8530975 Hash: 82C5E2A8E0A792F719394706C5F78C79 Accuracy: -m0
  Conclusion: CDDA 100%
  Signature: 968C042E50FBD8076EA88C0A3080B61FA6424667
FILE: 17 - Etta James -  Spoonful.flac
  Size: 8959892 Hash: 1B9A9CA3C457245572A2DD97C7041D64 Accuracy: -m0
  Conclusion: CDDA 100%
  Signature: 92501318A7E58539FD0488F68DF648F20B577702
FILE: 16 - John Brim -  Be Careful What You Do.flac
  Size: 13742077 Hash: 68289B807BB03F9E54C039F4BD7F0109 Accuracy: -m0
  Conclusion: CDDA 100%
  Signature: 9B50B6CB59DEF4876D4B713FDB7444BA1C480823
FILE: 15 - Willie Wells -  I Don't Know.flac
  Size: 9353825 Hash: A166987FCA472350004B8F875997D4A6 Accuracy: -m0
  Conclusion: CDDA 54%
  Signature: 2E2E88E4F326142DEC087A66CA970CF23EF75118
FILE: 14 - Junior Wells -  Hoodoo Man.flac
  Size: 14252746 Hash: 8073C9D5F01DD0C9BA308C6B2F52DED3 Accuracy: -m0
  Conclusion: CDDA 100%
  Signature: D3D57ACEF7B31E954E1D51291E759CC91A6BDF3C
FILE: 13 - Eddie Boyd -  Five Long Years.flac
  Size: 13703232 Hash: 81C09F2E4691E1984DDC84DD9880BA13 Accuracy: -m0
  Conclusion: CDDA 86%
  Signature: C61362693599C6A04286A0350C814167E532A2A0
FILE: 12 - Billy Emerson -  If Lovin' is Believing.flac
  Size: 11657751 Hash: 19DBA884D2EBDB6D3B423F840BAD173E Accuracy: -m0
  Conclusion: MPEG 100%
  Signature: 6C67E254AE49DF0D0F9435B7A0028A502586595E
FILE: 11 - Willie Dixon -  Pain In My Heart.flac
  Size: 16512655 Hash: EC65DC97327FD4DB49CCA45CC73667CA Accuracy: -m0
  Conclusion: CDDA 100%
  Signature: EC414569B9E066273F3563E340C0B8F8981E9F10
FILE: 10 - Otis Rush -  I Can't Quit You Baby.flac
  Size: 17508274 Hash: D3B7EFCB9B372DDAA800270338F27F1E Accuracy: -m0
  Conclusion: CDDA 58%
  Signature: 2DEEF0EF75342796A832DB678D37CCA4DCBB8207
FILE: 09 - James Cotton -  Cotton Crop Blues.flac
  Size: 14523581 Hash: 169CB058E8459FDEB1E95EF34C8CC1FD Accuracy: -m0
  Conclusion: CDDA 100%
  Signature: 0B55D3224F3EAEAA04BD6B19A9D78202178745CB
FILE: 08 - Billy Boy Arnold -  I Ain't Got You.flac
  Size: 8234730 Hash: A55AA43AEC9C1A838ECD7B8557BDB66E Accuracy: -m0
  Conclusion: MPEG 100%
  Signature: BFDFF6DEB84C97346C0D3EB9244AB4CCAC893CBD
FILE: 07 - Jimmy Rogers -  That's All Right.flac
  Size: 15851723 Hash: 939548EF160171A661B7CAF35DB3DD22 Accuracy: -m0
  Conclusion: CDDA 43%
  Signature: 3EADF0EE06B58F8A2EDCDAE432F8B296BB5063A0
FILE: 06 - Jimmy Reed -  Honest I Do.flac
  Size: 18195181 Hash: 9D4B476B134996CC532C38254B941322 Accuracy: -m0
  Conclusion: CDDA 43%
  Signature: CF2401EB4B00C8CE6A91DACFC0785E28400922D3
FILE: 05 - Walter Horton -  Need My Baby.flac
  Size: 10167717 Hash: 5D303D1171492A48D5F3E9BB80818136 Accuracy: -m0
  Conclusion: MPEG 89%
  Signature: 1F21DF07F886D597AB16610F461D82B496FDCF20
FILE: 04 - Buddy Guy -  Sit And Cry (The Blues).flac
  Size: 14644366 Hash: EE9908747F442AFB119EA682A0792F4E Accuracy: -m0
  Conclusion: MPEG 90%
  Signature: 74F2715684CB83B31C32A59120463FD4BCBE261A
FILE: 03 - Sonny Boy Williamson II -  Fattening Frogs For Snakes.flac
  Size: 9897480 Hash: 656EE644C2DD83D8C7005CCA8308F4CF Accuracy: -m0
  Conclusion: CDDA 100%
  Signature: A9ABE7C9AC763A456A9D740A706C9003E81DF813
FILE: 02 - Howlin' Wolf -  The Red Rooster.flac
  Size: 11201560 Hash: E8074F8FBA03A30E3CE3028B9BDE33A3 Accuracy: -m0
  Conclusion: CDDA 94%
  Signature: 460DFDBD26486C48CA4320C93B42019FB7BCDAB5
FILE: 01 - Muddy Waters -  Mannish Boy.flac
  Size: 9603788 Hash: FE3BEB66543A1D69E0ED3B2E7D9248F3 Accuracy: -m0
  Conclusion: CDDA 99%
  Signature: B0CD38968BFA3CDADDF44CC90CD6E28F3B1B3D3C
Прoдолжительность: 00:55:55
#777Трeклист:
01. Howlin' Wolf - Smokestack Lightnin' (3:06)
02. John Lee Hooker - Dimples (2:11)
03. Sonny Boy Williamson II - Your Funeral and My Trial (2:31)
04. Buddy Guy - Try To Quit You Baby (2:39)
05. Little Walter - Last Night (2:55)
06. Eddie Boyd - 24 Hours (3:31)
07. Lee Jackson - Fishing In My Pond (2:42)
08. Jimmy Witherspoon - When the Lights Go Out (2:51)
09. Otis Rush - All Your Love (2:38)
10. Junior Wells - Two-Headed Woman (2:42)
11. Magic Sam - Love Me With a Feeling (2:10)
12. Howlin' Wolf - Back Door Man (2:54)
13. Guitar Shorty - You Don't Treat Me Right (2:15)
14. Willie Dixon - Walkin' the Blues (3:08)
15. Etta James - I Just Want To Make Love To You (3:06)
16. Billy Boy Arnold - I Wish You Would (2:43)
17. Little Willie Foster - Crying the Blues (2:47)
18. Lowell Fulson - Tollin' Bells (3:06)
19. Sunnyland Slim - It's You Baby (2:24)
20. Otis Rush - Keep On Loving Me Baby (2:22)
Код:
Exact Audio Copy V1.5 from 20. February 2020
EAC extraction logfile from 8. September 2020, 21:52
Various Artists / Chicago Blues: The Absolutely Essential 3 CD Collection (Disc 2)
Used drive  : SlimtypeeBAU108  7 L   Adapter: 1  ID: 0
Read mode               : Secure
Utilize accurate stream : Yes
Defeat audio cache      : Yes
Make use of C2 pointers : No
Read offset correction                      : 6
Overread into Lead-In and Lead-Out          : No
Fill up missing offset samples with silence : Yes
Delete leading and trailing silent blocks   : No
Null samples used in CRC calculations       : Yes
Used interface                              : Native Win32 interface for Win NT & 2000
Gap handling                                : Appended to previous track
Used output format              : User Defined Encoder
Selected bitrate                : 1024 kBit/s
Quality                         : High
Add ID3 tag                     : No
Command line compressor         : C:\Temp\flac-1.3.2-win\win64\flac.exe
Additional command line options : -6 -V -T "ARTIST=%artist%" -T "TITLE=%title%" -T "ALBUM=%albumtitle%" -T "DATE=%year%" -T "TRACKNUMBER=%tracknr%" -T "GENRE=%genre%" -T "COMMENT=%comment%" -T "BAND=%albuminterpret%" -T "ALBUMARTIST=%albuminterpret%" -T "COMPOSER=%composer%" %haslyrics%--tag-from-file=LYRICS="%lyricsfile%"%haslyrics% -T "DISCNUMBER=%cdnumber%" -T "TOTALDISCS=%totalcds%" -T "TOTALTRACKS=%numtracks%" %hascover%--picture="%coverfile%"%hascover% %source% -o %dest%
TOC of the extracted CD
     Track |   Start  |  Length  | Start sector | End sector
    ---------------------------------------------------------
        1  |  0:00.00 |  3:06.09 |         0    |    13958
        2  |  3:06.09 |  2:11.01 |     13959    |    23784
        3  |  5:17.10 |  2:30.45 |     23785    |    35079
        4  |  7:47.55 |  2:38.49 |     35080    |    46978
        5  | 10:26.29 |  2:55.10 |     46979    |    60113
        6  | 13:21.39 |  3:31.16 |     60114    |    75954
        7  | 16:52.55 |  2:42.13 |     75955    |    88117
        8  | 19:34.68 |  2:51.25 |     88118    |   100967
        9  | 22:26.18 |  2:37.41 |    100968    |   112783
       10  | 25:03.59 |  2:42.34 |    112784    |   124967
       11  | 27:46.18 |  2:09.61 |    124968    |   134703
       12  | 29:56.04 |  2:53.41 |    134704    |   147719
       13  | 32:49.45 |  2:15.30 |    147720    |   157874
       14  | 35:05.00 |  3:08.19 |    157875    |   171993
       15  | 38:13.19 |  3:06.14 |    171994    |   185957
       16  | 41:19.33 |  2:42.39 |    185958    |   198146
       17  | 44:01.72 |  2:46.51 |    198147    |   210647
       18  | 46:48.48 |  3:05.70 |    210648    |   224592
       19  | 49:54.43 |  2:23.74 |    224593    |   235391
       20  | 52:18.42 |  2:21.55 |    235392    |   246021
Track  1
     Filename Z:\Personal\My ripps\Various Artists - Chicago Blues - The Absolutely Essential 3 CD Collection\Disc 2\01 - Howlin' Wolf -  Smokestack Lightnin'.wav
     Pre-gap length  0:00:02.00
     Peak level 99.9 %
     Extraction speed 1.9 X
     Track quality 100.0 %
     Test CRC C3FFA6F2
     Copy CRC C3FFA6F2
     Accurately ripped (confidence 3)  [7CEE0A8C]  (AR v2)
     Copy OK
Track  2
     Filename Z:\Personal\My ripps\Various Artists - Chicago Blues - The Absolutely Essential 3 CD Collection\Disc 2\02 - John Lee Hooker -  Dimples.wav
     Peak level 99.9 %
     Extraction speed 1.8 X
     Track quality 100.0 %
     Test CRC B1E512D2
     Copy CRC B1E512D2
     Accurately ripped (confidence 3)  [1019DE4B]  (AR v2)
     Copy OK
Track  3
     Filename Z:\Personal\My ripps\Various Artists - Chicago Blues - The Absolutely Essential 3 CD Collection\Disc 2\03 - Sonny Boy Williamson II -  Your Funeral and My Trial.wav
     Peak level 99.9 %
     Extraction speed 2.0 X
     Track quality 100.0 %
     Test CRC 226615D4
     Copy CRC 226615D4
     Accurately ripped (confidence 3)  [CA8307EB]  (AR v2)
     Copy OK
Track  4
     Filename Z:\Personal\My ripps\Various Artists - Chicago Blues - The Absolutely Essential 3 CD Collection\Disc 2\04 - Buddy Guy -  Try To Quit You Baby.wav
     Peak level 99.9 %
     Extraction speed 2.1 X
     Track quality 100.0 %
     Test CRC BE794B12
     Copy CRC BE794B12
     Accurately ripped (confidence 3)  [9C8B87E9]  (AR v2)
     Copy OK
Track  5
     Filename Z:\Personal\My ripps\Various Artists - Chicago Blues - The Absolutely Essential 3 CD Collection\Disc 2\05 - Little Walter -  Last Night.wav
     Peak level 99.9 %
     Extraction speed 2.3 X
     Track quality 100.0 %
     Test CRC 00A78EF5
     Copy CRC 00A78EF5
     Accurately ripped (confidence 3)  [00C3A521]  (AR v2)
     Copy OK
Track  6
     Filename Z:\Personal\My ripps\Various Artists - Chicago Blues - The Absolutely Essential 3 CD Collection\Disc 2\06 - Eddie Boyd -  24 Hours.wav
     Peak level 99.9 %
     Extraction speed 2.5 X
     Track quality 100.0 %
     Test CRC 09CC8DF9
     Copy CRC 09CC8DF9
     Accurately ripped (confidence 3)  [07F77824]  (AR v2)
     Copy OK
Track  7
     Filename Z:\Personal\My ripps\Various Artists - Chicago Blues - The Absolutely Essential 3 CD Collection\Disc 2\07 - Lee Jackson -  Fishing In My Pond.wav
     Peak level 99.9 %
     Extraction speed 2.5 X
     Track quality 100.0 %
     Test CRC 43CA02B8
     Copy CRC 43CA02B8
     Accurately ripped (confidence 3)  [CE179AC9]  (AR v2)
     Copy OK
Track  8
     Filename Z:\Personal\My ripps\Various Artists - Chicago Blues - The Absolutely Essential 3 CD Collection\Disc 2\08 - Jimmy Witherspoon -  When the Lights Go Out.wav
     Peak level 98.0 %
     Extraction speed 1.9 X
     Track quality 99.9 %
     Test CRC C7528718
     Copy CRC C7528718
     Accurately ripped (confidence 3)  [9CDB20DB]  (AR v2)
     Copy OK
Track  9
     Filename Z:\Personal\My ripps\Various Artists - Chicago Blues - The Absolutely Essential 3 CD Collection\Disc 2\09 - Otis Rush -  All Your Love.wav
     Peak level 91.9 %
     Extraction speed 2.6 X
     Track quality 100.0 %
     Test CRC BDB46B33
     Copy CRC BDB46B33
     Accurately ripped (confidence 3)  [EB9B13DC]  (AR v2)
     Copy OK
Track 10
     Filename Z:\Personal\My ripps\Various Artists - Chicago Blues - The Absolutely Essential 3 CD Collection\Disc 2\10 - Junior Wells -  Two-Headed Woman.wav
     Peak level 99.9 %
     Extraction speed 2.7 X
     Track quality 100.0 %
     Test CRC 4B875F3A
     Copy CRC 4B875F3A
     Accurately ripped (confidence 3)  [2E62F85F]  (AR v2)
     Copy OK
Track 11
     Filename Z:\Personal\My ripps\Various Artists - Chicago Blues - The Absolutely Essential 3 CD Collection\Disc 2\11 - Magic Sam -  Love Me With a Feeling.wav
     Peak level 99.9 %
     Extraction speed 1.8 X
     Track quality 99.9 %
     Test CRC AB6750CA
     Copy CRC AB6750CA
     Accurately ripped (confidence 3)  [D4F143FF]  (AR v2)
     Copy OK
Track 12
     Filename Z:\Personal\My ripps\Various Artists - Chicago Blues - The Absolutely Essential 3 CD Collection\Disc 2\12 - Howlin' Wolf -  Back Door Man.wav
     Peak level 82.2 %
     Extraction speed 2.9 X
     Track quality 100.0 %
     Test CRC 39E51E9B
     Copy CRC 39E51E9B
     Accurately ripped (confidence 3)  [137F9C04]  (AR v2)
     Copy OK
Track 13
     Filename Z:\Personal\My ripps\Various Artists - Chicago Blues - The Absolutely Essential 3 CD Collection\Disc 2\13 - Guitar Shorty -  You Don't Treat Me Right.wav
     Peak level 99.9 %
     Extraction speed 2.8 X
     Track quality 100.0 %
     Test CRC D5D82182
     Copy CRC D5D82182
     Accurately ripped (confidence 3)  [C43821DA]  (AR v2)
     Copy OK
Track 14
     Filename Z:\Personal\My ripps\Various Artists - Chicago Blues - The Absolutely Essential 3 CD Collection\Disc 2\14 - Willie Dixon -  Walkin' the Blues.wav
     Peak level 94.2 %
     Extraction speed 2.3 X
     Track quality 99.9 %
     Test CRC EA272520
     Copy CRC EA272520
     Accurately ripped (confidence 3)  [0A0A0CD4]  (AR v2)
     Copy OK
Track 15
     Filename Z:\Personal\My ripps\Various Artists - Chicago Blues - The Absolutely Essential 3 CD Collection\Disc 2\15 - Etta James -  I Just Want To Make Love To You.wav
     Peak level 99.9 %
     Extraction speed 3.2 X
     Track quality 100.0 %
     Test CRC 7C22B2D4
     Copy CRC 7C22B2D4
     Accurately ripped (confidence 3)  [A3DDFA6A]  (AR v2)
     Copy OK
Track 16
     Filename Z:\Personal\My ripps\Various Artists - Chicago Blues - The Absolutely Essential 3 CD Collection\Disc 2\16 - Billy Boy Arnold -  I Wish You Would.wav
     Peak level 99.9 %
     Extraction speed 3.2 X
     Track quality 100.0 %
     Test CRC 29AC1BDD
     Copy CRC 29AC1BDD
     Accurately ripped (confidence 3)  [A431FD2B]  (AR v2)
     Copy OK
Track 17
     Filename Z:\Personal\My ripps\Various Artists - Chicago Blues - The Absolutely Essential 3 CD Collection\Disc 2\17 - Little Willie Foster -  Crying the Blues.wav
     Peak level 99.9 %
     Extraction speed 3.2 X
     Track quality 100.0 %
     Test CRC 94C7EB58
     Copy CRC 94C7EB58
     Accurately ripped (confidence 3)  [F1C05AD8]  (AR v2)
     Copy OK
Track 18
     Filename Z:\Personal\My ripps\Various Artists - Chicago Blues - The Absolutely Essential 3 CD Collection\Disc 2\18 - Lowell Fulson -  Tollin' Bells.wav
     Peak level 99.9 %
     Extraction speed 2.5 X
     Track quality 99.9 %
     Test CRC 88C79BA4
     Copy CRC 88C79BA4
     Accurately ripped (confidence 3)  [FE6820A8]  (AR v2)
     Copy OK
Track 19
     Filename Z:\Personal\My ripps\Various Artists - Chicago Blues - The Absolutely Essential 3 CD Collection\Disc 2\19 - Sunnyland Slim -  It's You Baby.wav
     Peak level 99.9 %
     Extraction speed 3.3 X
     Track quality 100.0 %
     Test CRC A2AFE21B
     Copy CRC A2AFE21B
     Accurately ripped (confidence 3)  [6E136DAE]  (AR v2)
     Copy OK
Track 20
     Filename Z:\Personal\My ripps\Various Artists - Chicago Blues - The Absolutely Essential 3 CD Collection\Disc 2\20 - Otis Rush -  Keep On Loving Me Baby.wav
     Peak level 99.9 %
     Extraction speed 2.3 X
     Track quality 99.9 %
     Test CRC 72F412CD
     Copy CRC 72F412CD
     Accurately ripped (confidence 3)  [FBB40FCC]  (AR v2)
     Copy OK
All tracks accurately ripped
No errors occurred
End of status report
---- CUETools DB Plugin V2.1.6
[CTDB TOCID: w.lcLVPv1nDtllFr_IHCpKWBDHY-] found
Submit result: w.lcLVPv1nDtllFr_IHCpKWBDHY- has been confirmed
Track | CTDB Status
  1   | (17/17) Accurately ripped
  2   | (17/17) Accurately ripped
  3   | (17/17) Accurately ripped
  4   | (17/17) Accurately ripped
  5   | (17/17) Accurately ripped
  6   | (17/17) Accurately ripped
  7   | (17/17) Accurately ripped
  8   | (17/17) Accurately ripped
  9   | (17/17) Accurately ripped
 10   | (17/17) Accurately ripped
 11   | (17/17) Accurately ripped
 12   | (17/17) Accurately ripped
 13   | (17/17) Accurately ripped
 14   | (17/17) Accurately ripped
 15   | (17/17) Accurately ripped
 16   | (17/17) Accurately ripped
 17   | (17/17) Accurately ripped
 18   | (17/17) Accurately ripped
 19   | (17/17) Accurately ripped
 20   | (17/17) Accurately ripped
==== Log checksum 9336D14E27B6E83D9DFDEB397DEE5B0238774C8D5DF9613C8E8467DED7AB184E ====
Код:
REM GENRE Blues
REM DATE 2012
REM DISCID 260CD014
REM COMMENT "ExactAudioCopy v1.5"
PERFORMER "Various Artists"
TITLE "Chicago Blues: The Absolutely Essential 3 CD Collection (Disc 2)"
REM COMPOSER ""
FILE "01 - Howlin' Wolf -  Smokestack Lightnin'.wav" WAVE
  TRACK 01 AUDIO
    TITLE "Smokestack Lightnin'"
    PERFORMER "Howlin' Wolf"
    REM COMPOSER ""
    ISRC GBEEJ0702114
    INDEX 01 00:00:00
FILE "02 - John Lee Hooker -  Dimples.wav" WAVE
  TRACK 02 AUDIO
    TITLE "Dimples"
    PERFORMER "John Lee Hooker"
    REM COMPOSER "John Lee Hooker"
    ISRC GBEEJ0901853
    INDEX 01 00:00:00
FILE "03 - Sonny Boy Williamson II -  Your Funeral and My Trial.wav" WAVE
  TRACK 03 AUDIO
    TITLE "Your Funeral and My Trial"
    PERFORMER "Sonny Boy Williamson II"
    REM COMPOSER "Sonny Boy Williamson II"
    ISRC GBEEJ1201015
    INDEX 01 00:00:00
FILE "04 - Buddy Guy -  Try To Quit You Baby.wav" WAVE
  TRACK 04 AUDIO
    TITLE "Try To Quit You Baby"
    PERFORMER "Buddy Guy"
    REM COMPOSER "Sonny Boy Williamson II"
    ISRC GBEEJ0900633
    INDEX 01 00:00:00
FILE "05 - Little Walter -  Last Night.wav" WAVE
  TRACK 05 AUDIO
    TITLE "Last Night"
    PERFORMER "Little Walter"
    REM COMPOSER "Sonny Boy Williamson II"
    ISRC GBEEJ0801293
    INDEX 01 00:00:00
FILE "06 - Eddie Boyd -  24 Hours.wav" WAVE
  TRACK 06 AUDIO
    TITLE "24 Hours"
    PERFORMER "Eddie Boyd"
    REM COMPOSER "Eddie Boyd"
    ISRC GBEEJ1200290
    INDEX 01 00:00:00
FILE "07 - Lee Jackson -  Fishing In My Pond.wav" WAVE
  TRACK 07 AUDIO
    TITLE "Fishing In My Pond"
    PERFORMER "Lee Jackson"
    REM COMPOSER "Willie Dixon"
    ISRC GBEEJ1200304
    INDEX 01 00:00:00
FILE "08 - Jimmy Witherspoon -  When the Lights Go Out.wav" WAVE
  TRACK 08 AUDIO
    TITLE "When the Lights Go Out"
    PERFORMER "Jimmy Witherspoon"
    REM COMPOSER "Willie Dixon"
    ISRC GBEEJ1200308
    INDEX 01 00:00:00
FILE "09 - Otis Rush -  All Your Love.wav" WAVE
  TRACK 09 AUDIO
    TITLE "All Your Love"
    PERFORMER "Otis Rush"
    REM COMPOSER "Otis Rush"
    ISRC GBEEJ1200310
    INDEX 01 00:00:00
FILE "10 - Junior Wells -  Two-Headed Woman.wav" WAVE
  TRACK 10 AUDIO
    TITLE "Two-Headed Woman"
    PERFORMER "Junior Wells"
    REM COMPOSER "Willie Dixon"
    ISRC GBEEJ1200307
    INDEX 01 00:00:00
FILE "11 - Magic Sam -  Love Me With a Feeling.wav" WAVE
  TRACK 11 AUDIO
    TITLE "Love Me With a Feeling"
    PERFORMER "Magic Sam"
    REM COMPOSER "Willie Dixon"
    ISRC GBEEJ1200311
    INDEX 01 00:00:00
FILE "12 - Howlin' Wolf -  Back Door Man.wav" WAVE
  TRACK 12 AUDIO
    TITLE "Back Door Man"
    PERFORMER "Howlin' Wolf"
    REM COMPOSER "Willie Dixon"
    ISRC GBEEJ1200301
    INDEX 01 00:00:00
FILE "13 - Guitar Shorty -  You Don't Treat Me Right.wav" WAVE
  TRACK 13 AUDIO
    TITLE "You Don't Treat Me Right"
    PERFORMER "Guitar Shorty"
    REM COMPOSER "Willie Dixon"
    ISRC GBEEJ1200321
    INDEX 01 00:00:00
FILE "14 - Willie Dixon -  Walkin' the Blues.wav" WAVE
  TRACK 14 AUDIO
    TITLE "Walkin' the Blues"
    PERFORMER "Willie Dixon"
    REM COMPOSER "Dupree"
    ISRC GBEEJ1200261
    INDEX 01 00:00:00
FILE "15 - Etta James -  I Just Want To Make Love To You.wav" WAVE
  TRACK 15 AUDIO
    TITLE "I Just Want To Make Love To You"
    PERFORMER "Etta James"
    REM COMPOSER "Willie Dixon"
    ISRC GBEEJ1200470
    INDEX 01 00:00:00
FILE "16 - Billy Boy Arnold -  I Wish You Would.wav" WAVE
  TRACK 16 AUDIO
    TITLE "I Wish You Would"
    PERFORMER "Billy Boy Arnold"
    REM COMPOSER "Billy Boy Arnold"
    ISRC GBEEJ0801279
    INDEX 01 00:00:00
FILE "17 - Little Willie Foster -  Crying the Blues.wav" WAVE
  TRACK 17 AUDIO
    TITLE "Crying the Blues"
    PERFORMER "Little Willie Foster"
    REM COMPOSER "Little Willie Foster"
    ISRC GBEEJ1200314
    INDEX 01 00:00:00
FILE "18 - Lowell Fulson -  Tollin' Bells.wav" WAVE
  TRACK 18 AUDIO
    TITLE "Tollin' Bells"
    PERFORMER "Lowell Fulson"
    REM COMPOSER "Willie Dixon"
    ISRC GBEEJ1200306
    INDEX 01 00:00:00
FILE "19 - Sunnyland Slim -  It's You Baby.wav" WAVE
  TRACK 19 AUDIO
    TITLE "It's You Baby"
    PERFORMER "Sunnyland Slim"
    REM COMPOSER "Willie Dixon"
    ISRC GBEEJ1200318
    INDEX 01 00:00:00
FILE "20 - Otis Rush -  Keep On Loving Me Baby.wav" WAVE
  TRACK 20 AUDIO
    TITLE "Keep On Loving Me Baby"
    PERFORMER "Otis Rush"
    REM COMPOSER "Otis Rush"
    ISRC GBEEJ1200313
    INDEX 01 00:00:00
Код:
-----------------------
DON'T MODIFY THIS FILE
-----------------------
PERFORMER: auCDtect Task Manager, ver. 1.6.0 RC1 build 1.6.0.1
Copyright (c) 2008-2010 y-soft. All rights reserved
[url=http://y-soft.org]http://y-soft.org[/url]
ANALYZER: auCDtect: CD records authenticity detector, version 0.8.2
Copyright (c) 2004 Oleg Berngardt. All rights reserved.
Copyright (c) 2004 Alexander Djourik. All rights reserved.
FILE: 20 - Otis Rush -  Keep On Loving Me Baby.flac
  Size: 11759975 Hash: 8B975B1025B385DB37332EFA446591DA Accuracy: -m0
  Conclusion: CDDA 100%
  Signature: 862BBE2DB0B62F73B5C39CC2F56ED3EDAA53634A
FILE: 19 - Sunnyland Slim -  It's You Baby.flac
  Size: 11957485 Hash: EC4A0272DB4FAE70432BA2E4340EF10B Accuracy: -m0
  Conclusion: CDDA 100%
  Signature: 5D373CAA286C1B01408A888548FF7C47BCAAAFE5
FILE: 18 - Lowell Fulson -  Tollin' Bells.flac
  Size: 14958309 Hash: 65B4F2AC9781D30E26AEA8BC8A855C1D Accuracy: -m0
  Conclusion: CDDA 100%
  Signature: C0261E42741DC61DF6996BEC020199EE93D562D7
FILE: 17 - Little Willie Foster -  Crying the Blues.flac
  Size: 12556541 Hash: 55237CB1095FE42A852D1B46C21D6433 Accuracy: -m0
  Conclusion: CDDA 86%
  Signature: B131BA24BF4F0CA0C7DC94D447664E13185CB939
FILE: 16 - Billy Boy Arnold -  I Wish You Would.flac
  Size: 8572111 Hash: C3117C655C3951E47F83D95D2034E9A3 Accuracy: -m0
  Conclusion: CDDA 100%
  Signature: 166A1E35F73FB2687F474A872A120A6B14AC3A52
FILE: 15 - Etta James -  I Just Want To Make Love To You.flac
  Size: 13365463 Hash: 6BD28A5D8529D823307B9CD849C9512C Accuracy: -m0
  Conclusion: MPEG 95%
  Signature: 1091316EC70F15DE44A638EAD27126EE7A774F91
FILE: 14 - Willie Dixon -  Walkin' the Blues.flac
  Size: 13678280 Hash: C54750D9BC2E0F8462DEE6BC704B3DEA Accuracy: -m0
  Conclusion: CDDA 85%
  Signature: 6BCCF255E066339C8DDEDA69F19E981D88E19147
FILE: 13 - Guitar Shorty -  You Don't Treat Me Right.flac
  Size: 10070060 Hash: 266061C8092D53A87EB0D61B755F0D4B Accuracy: -m0
  Conclusion: ???
  Signature: 361D2F53CC9ABE1587E5ED9477265858CC896D85
FILE: 12 - Howlin' Wolf -  Back Door Man.flac
  Size: 14166213 Hash: 06A1D8FCA41E9D98E991296FD4E4F720 Accuracy: -m0
  Conclusion: CDDA 100%
  Signature: EAFBFEAFF31FF59C6B82E3664311193EBC689C77
FILE: 11 - Magic Sam -  Love Me With a Feeling.flac
  Size: 10371935 Hash: 6A8DDC7E51CA2FEE6E2260A3DAB2F79D Accuracy: -m0
  Conclusion: CDDA 100%
  Signature: A56CC5C3E146FB47009E2B9A54F8D420AA3816E5
FILE: 10 - Junior Wells -  Two-Headed Woman.flac
  Size: 13406602 Hash: CFB1A109E2BCA5F6057F3F73D79EB93F Accuracy: -m0
  Conclusion: CDDA 76%
  Signature: 44E690D6EE1FDFD2F73AB32A2C156FB15F64B3F3
FILE: 09 - Otis Rush -  All Your Love.flac
  Size: 13428868 Hash: 5934202B1E7751336824A2DB5D6B918C Accuracy: -m0
  Conclusion: CDDA 100%
  Signature: 745D719C0677B930AE9964A49E0FE0EE2995D9EB
FILE: 08 - Jimmy Witherspoon -  When the Lights Go Out.flac
  Size: 15295018 Hash: 534425E639C54A5DCBC70F4DDD2C4179 Accuracy: -m0
  Conclusion: CDDA 100%
  Signature: 5E4E82A8AB23ADE0FC54DBE98427670BD9729886
FILE: 07 - Lee Jackson -  Fishing In My Pond.flac
  Size: 15138970 Hash: 8E73FE54289504FF08C6128ED3910962 Accuracy: -m0
  Conclusion: MPEG 93%
  Signature: EBD780D81681FC3C1A3FC3A2576FBF7FDF967AF3
FILE: 06 - Eddie Boyd -  24 Hours.flac
  Size: 17641679 Hash: 1E90D08F6008C4358FFA0A894A8CBD3F Accuracy: -m0
  Conclusion: CDDA 99%
  Signature: 2708E863D3054455E6313C9EAC48D07AC89BD994
FILE: 05 - Little Walter -  Last Night.flac
  Size: 10376008 Hash: 57CF41FFD7C9E4692AADC7551C495C9E Accuracy: -m0
  Conclusion: CDDA 100%
  Signature: A5915C6CD0623641AFD3CF2DC05C1DCA4716605C
FILE: 04 - Buddy Guy -  Try To Quit You Baby.flac
  Size: 12730442 Hash: 355C8C65371033ADC27081FC1FF80C60 Accuracy: -m0
  Conclusion: MPEG 91%
  Signature: FDB8CA45C7AB89DCB15B949F3C23CADC77CF0300
FILE: 03 - Sonny Boy Williamson II -  Your Funeral and My Trial.flac
  Size: 15455462 Hash: 127F4551240DEA793010F62FD7C92AE8 Accuracy: -m0
  Conclusion: CDDA 43%
  Signature: C5902ACE74946EA6359C15F73EF78D8A5151DF53
FILE: 02 - John Lee Hooker -  Dimples.flac
  Size: 8302013 Hash: 00502A054C3D71F86D83B3D72E4D70AA Accuracy: -m0
  Conclusion: CDDA 100%
  Signature: 66C99A80B1AD2C5C391E16CE4A8A01A0B5A118A4
FILE: 01 - Howlin' Wolf -  Smokestack Lightnin'.flac
  Size: 19835259 Hash: 8F4322419E53FB1BCBD4FA0C4A9B1092 Accuracy: -m0
  Conclusion: CDDA 99%
  Signature: 93EBA41EC8A8FEEEFDB62042AEF5375B3EE5A43C
Прoдолжительность: 00:54:40
#777Трeклист:
01. Jimmy Reed - Bright Lights, Big City (2:42)
02. Muddy Waters - Got My Mojo Working (2:51)
03. Little Walter - Juke (2:44)
04. Howlin' Wolf - Wang Dang Doodle (2:25)
05. Willie Nix - Just Can't Say (2:41)
06. Junior Wells - Bout the Break of Day (3:16)
07. Sonny Boy Williamson II - Don't Start Me Talking (2:34)
08. Lowell Fulson - Do Me Right (2:59)
09. Muddy Waters - I'm Ready (3:03)
10. Howlin' Wolf - How Many More Years (2:46)
11. Jimmy Reed - Hush Hush (2:35)
12. Magic Sam - All Night Long (2:52)
13. Junior Wells - I Could Cry (3:16)
14. Little Walter - My Babe (2:36)
15. Big Walter Horton - Have a Good Time (2:22)
16. Howlin' Wolf - Evil (2:56)
17. Muddy Waters - I'm Your Hoochie Coochie Man (2:50)
18. Eddie Boyd - Third Degree (3:18)
19. Otis Rush - It Takes Time (2:51)
20. Jimmy Reed - Big Boss Man (2:49)
Код:
Exact Audio Copy V1.5 from 20. February 2020
EAC extraction logfile from 9. September 2020, 8:54
Various Artists / Chicago Blues: The Absolutely Essential 3 CD Collection (Disc 3)
Used drive  : SlimtypeeBAU108  7 L   Adapter: 1  ID: 0
Read mode               : Secure
Utilize accurate stream : Yes
Defeat audio cache      : Yes
Make use of C2 pointers : No
Read offset correction                      : 6
Overread into Lead-In and Lead-Out          : No
Fill up missing offset samples with silence : Yes
Delete leading and trailing silent blocks   : No
Null samples used in CRC calculations       : Yes
Used interface                              : Native Win32 interface for Win NT & 2000
Gap handling                                : Appended to previous track
Used output format              : User Defined Encoder
Selected bitrate                : 1024 kBit/s
Quality                         : High
Add ID3 tag                     : No
Command line compressor         : C:\Temp\flac-1.3.2-win\win64\flac.exe
Additional command line options : -6 -V -T "ARTIST=%artist%" -T "TITLE=%title%" -T "ALBUM=%albumtitle%" -T "DATE=%year%" -T "TRACKNUMBER=%tracknr%" -T "GENRE=%genre%" -T "COMMENT=%comment%" -T "BAND=%albuminterpret%" -T "ALBUMARTIST=%albuminterpret%" -T "COMPOSER=%composer%" %haslyrics%--tag-from-file=LYRICS="%lyricsfile%"%haslyrics% -T "DISCNUMBER=%cdnumber%" -T "TOTALDISCS=%totalcds%" -T "TOTALTRACKS=%numtracks%" %hascover%--picture="%coverfile%"%hascover% %source% -o %dest%
TOC of the extracted CD
     Track |   Start  |  Length  | Start sector | End sector
    ---------------------------------------------------------
        1  |  0:00.00 |  2:42.18 |         0    |    12167
        2  |  2:42.18 |  2:50.69 |     12168    |    24986
        3  |  5:33.12 |  2:44.34 |     24987    |    37320
        4  |  8:17.46 |  2:25.30 |     37321    |    48225
        5  | 10:43.01 |  2:41.34 |     48226    |    60334
        6  | 13:24.35 |  3:16.13 |     60335    |    75047
        7  | 16:40.48 |  2:33.66 |     75048    |    86588
        8  | 19:14.39 |  2:58.54 |     86589    |    99992
        9  | 22:13.18 |  3:02.64 |     99993    |   113706
       10  | 25:16.07 |  2:46.25 |    113707    |   126181
       11  | 28:02.32 |  2:35.00 |    126182    |   137806
       12  | 30:37.32 |  2:51.68 |    137807    |   150699
       13  | 33:29.25 |  3:15.51 |    150700    |   165375
       14  | 36:45.01 |  2:35.58 |    165376    |   177058
       15  | 39:20.59 |  2:22.29 |    177059    |   187737
       16  | 41:43.13 |  2:56.11 |    187738    |   200948
       17  | 44:39.24 |  2:50.34 |    200949    |   213732
       18  | 47:29.58 |  3:17.72 |    213733    |   228579
       19  | 50:47.55 |  2:51.35 |    228580    |   241439
       20  | 53:39.15 |  2:49.31 |    241440    |   254145
Track  1
     Filename Z:\Personal\My ripps\Various Artists - Chicago Blues - The Absolutely Essential 3 CD Collection\Disc 3\01 - Jimmy Reed -  Bright Lights, Big City.wav
     Pre-gap length  0:00:02.00
     Peak level 99.9 %
     Extraction speed 1.8 X
     Track quality 100.0 %
     Test CRC DCC8AC11
     Copy CRC DCC8AC11
     Accurately ripped (confidence 3)  [0F132319]  (AR v2)
     Copy OK
Track  2
     Filename Z:\Personal\My ripps\Various Artists - Chicago Blues - The Absolutely Essential 3 CD Collection\Disc 3\02 - Muddy Waters -  Got My Mojo Working.wav
     Peak level 99.9 %
     Extraction speed 2.0 X
     Track quality 100.0 %
     Test CRC 3C5F4DF5
     Copy CRC 3C5F4DF5
     Accurately ripped (confidence 3)  [2510F011]  (AR v2)
     Copy OK
Track  3
     Filename Z:\Personal\My ripps\Various Artists - Chicago Blues - The Absolutely Essential 3 CD Collection\Disc 3\03 - Little Walter -  Juke.wav
     Peak level 99.9 %
     Extraction speed 2.1 X
     Track quality 100.0 %
     Test CRC CEB8A2CA
     Copy CRC CEB8A2CA
     Accurately ripped (confidence 3)  [AD30912E]  (AR v2)
     Copy OK
Track  4
     Filename Z:\Personal\My ripps\Various Artists - Chicago Blues - The Absolutely Essential 3 CD Collection\Disc 3\04 - Howlin' Wolf -  Wang Dang Doodle.wav
     Peak level 88.3 %
     Extraction speed 1.5 X
     Track quality 99.9 %
     Test CRC 3B1E1CCC
     Copy CRC 3B1E1CCC
     Accurately ripped (confidence 3)  [097DDE6A]  (AR v2)
     Copy OK
Track  5
     Filename Z:\Personal\My ripps\Various Artists - Chicago Blues - The Absolutely Essential 3 CD Collection\Disc 3\05 - Willie Nix -  Just Can't Say.wav
     Peak level 99.9 %
     Extraction speed 2.3 X
     Track quality 100.0 %
     Test CRC 142CA67C
     Copy CRC 142CA67C
     Accurately ripped (confidence 3)  [EAA2EF86]  (AR v2)
     Copy OK
Track  6
     Filename Z:\Personal\My ripps\Various Artists - Chicago Blues - The Absolutely Essential 3 CD Collection\Disc 3\06 - Junior Wells -  Bout the Break of Day.wav
     Peak level 92.2 %
     Extraction speed 1.8 X
     Track quality 99.9 %
     Test CRC F11DD72E
     Copy CRC F11DD72E
     Accurately ripped (confidence 3)  [3AC9899E]  (AR v2)
     Copy OK
Track  7
     Filename Z:\Personal\My ripps\Various Artists - Chicago Blues - The Absolutely Essential 3 CD Collection\Disc 3\07 - Sonny Boy Williamson II -  Don't Start Me Talking.wav
     Peak level 99.9 %
     Extraction speed 2.4 X
     Track quality 100.0 %
     Test CRC 55CA3051
     Copy CRC 55CA3051
     Accurately ripped (confidence 3)  [21F34D04]  (AR v2)
     Copy OK
Track  8
     Filename Z:\Personal\My ripps\Various Artists - Chicago Blues - The Absolutely Essential 3 CD Collection\Disc 3\08 - Lowell Fulson -  Do Me Right.wav
     Peak level 99.9 %
     Extraction speed 2.6 X
     Track quality 100.0 %
     Test CRC 549B2ADC
     Copy CRC 549B2ADC
     Accurately ripped (confidence 3)  [6119F810]  (AR v2)
     Copy OK
Track  9
     Filename Z:\Personal\My ripps\Various Artists - Chicago Blues - The Absolutely Essential 3 CD Collection\Disc 3\09 - Muddy Waters -  I'm Ready.wav
     Peak level 99.9 %
     Extraction speed 2.7 X
     Track quality 100.0 %
     Test CRC 7B4AD536
     Copy CRC 7B4AD536
     Accurately ripped (confidence 3)  [AC8AF673]  (AR v2)
     Copy OK
Track 10
     Filename Z:\Personal\My ripps\Various Artists - Chicago Blues - The Absolutely Essential 3 CD Collection\Disc 3\10 - Howlin' Wolf -  How Many More Years.wav
     Peak level 99.9 %
     Extraction speed 2.0 X
     Track quality 99.9 %
     Test CRC E1F9779C
     Copy CRC E1F9779C
     Accurately ripped (confidence 3)  [1FE4C8E0]  (AR v2)
     Copy OK
Track 11
     Filename Z:\Personal\My ripps\Various Artists - Chicago Blues - The Absolutely Essential 3 CD Collection\Disc 3\11 - Jimmy Reed -  Hush Hush.wav
     Peak level 99.9 %
     Extraction speed 2.0 X
     Track quality 99.9 %
     Test CRC AF70166B
     Copy CRC AF70166B
     Accurately ripped (confidence 3)  [0BBAA30B]  (AR v2)
     Copy OK
Track 12
     Filename Z:\Personal\My ripps\Various Artists - Chicago Blues - The Absolutely Essential 3 CD Collection\Disc 3\12 - Magic Sam -  All Night Long.wav
     Peak level 99.9 %
     Extraction speed 3.0 X
     Track quality 100.0 %
     Test CRC EDB1F888
     Copy CRC EDB1F888
     Accurately ripped (confidence 3)  [B60655F2]  (AR v2)
     Copy OK
Track 13
     Filename Z:\Personal\My ripps\Various Artists - Chicago Blues - The Absolutely Essential 3 CD Collection\Disc 3\13 - Junior Wells -  I Could Cry.wav
     Peak level 99.9 %
     Extraction speed 3.1 X
     Track quality 100.0 %
     Test CRC 8485E443
     Copy CRC 8485E443
     Accurately ripped (confidence 3)  [2173AADB]  (AR v2)
     Copy OK
Track 14
     Filename Z:\Personal\My ripps\Various Artists - Chicago Blues - The Absolutely Essential 3 CD Collection\Disc 3\14 - Little Walter -  My Babe.wav
     Peak level 99.9 %
     Extraction speed 3.0 X
     Track quality 100.0 %
     Test CRC 746B6213
     Copy CRC 746B6213
     Accurately ripped (confidence 3)  [36FF15B2]  (AR v2)
     Copy OK
Track 15
     Filename Z:\Personal\My ripps\Various Artists - Chicago Blues - The Absolutely Essential 3 CD Collection\Disc 3\15 - Big Walter Horton -  Have a Good Time.wav
     Peak level 99.9 %
     Extraction speed 2.1 X
     Track quality 99.9 %
     Test CRC 15543691
     Copy CRC 15543691
     Accurately ripped (confidence 3)  [4528454F]  (AR v2)
     Copy OK
Track 16
     Filename Z:\Personal\My ripps\Various Artists - Chicago Blues - The Absolutely Essential 3 CD Collection\Disc 3\16 - Howlin' Wolf -  Evil.wav
     Peak level 99.9 %
     Extraction speed 3.3 X
     Track quality 100.0 %
     Test CRC 20EAF870
     Copy CRC 20EAF870
     Accurately ripped (confidence 3)  [2A65CC16]  (AR v2)
     Copy OK
Track 17
     Filename Z:\Personal\My ripps\Various Artists - Chicago Blues - The Absolutely Essential 3 CD Collection\Disc 3\17 - Muddy Waters -  I'm Your Hoochie Coochie Man.wav
     Peak level 99.9 %
     Extraction speed 3.3 X
     Track quality 100.0 %
     Test CRC 38B31579
     Copy CRC 38B31579
     Accurately ripped (confidence 3)  [57EB4C6C]  (AR v2)
     Copy OK
Track 18
     Filename Z:\Personal\My ripps\Various Artists - Chicago Blues - The Absolutely Essential 3 CD Collection\Disc 3\18 - Eddie Boyd -  Third Degree.wav
     Peak level 99.9 %
     Extraction speed 3.5 X
     Track quality 100.0 %
     Test CRC 327B7CCC
     Copy CRC 327B7CCC
     Accurately ripped (confidence 3)  [F48E3E94]  (AR v2)
     Copy OK
Track 19
     Filename Z:\Personal\My ripps\Various Artists - Chicago Blues - The Absolutely Essential 3 CD Collection\Disc 3\19 - Otis Rush -  It Takes Time.wav
     Peak level 99.9 %
     Extraction speed 3.5 X
     Track quality 100.0 %
     Test CRC BA8D5C8F
     Copy CRC BA8D5C8F
     Accurately ripped (confidence 3)  [72BEBCF4]  (AR v2)
     Copy OK
Track 20
     Filename Z:\Personal\My ripps\Various Artists - Chicago Blues - The Absolutely Essential 3 CD Collection\Disc 3\20 - Jimmy Reed -  Big Boss Man.wav
     Peak level 99.9 %
     Extraction speed 3.5 X
     Track quality 100.0 %
     Test CRC 975DBDB4
     Copy CRC 975DBDB4
     Accurately ripped (confidence 3)  [4E9DB3C1]  (AR v2)
     Copy OK
All tracks accurately ripped
No errors occurred
End of status report
---- CUETools DB Plugin V2.1.6
[CTDB TOCID: MavqgfeRwP2VhuMmjE5YiaLPhXE-] found
Submit result: MavqgfeRwP2VhuMmjE5YiaLPhXE- has been confirmed
Track | CTDB Status
  1   | (19/19) Accurately ripped
  2   | (19/19) Accurately ripped
  3   | (19/19) Accurately ripped
  4   | (19/19) Accurately ripped
  5   | (19/19) Accurately ripped
  6   | (19/19) Accurately ripped
  7   | (19/19) Accurately ripped
  8   | (19/19) Accurately ripped
  9   | (19/19) Accurately ripped
 10   | (19/19) Accurately ripped
 11   | (19/19) Accurately ripped
 12   | (19/19) Accurately ripped
 13   | (19/19) Accurately ripped
 14   | (19/19) Accurately ripped
 15   | (19/19) Accurately ripped
 16   | (19/19) Accurately ripped
 17   | (19/19) Accurately ripped
 18   | (19/19) Accurately ripped
 19   | (19/19) Accurately ripped
 20   | (19/19) Accurately ripped
==== Log checksum 664F9179ADED3B91DEC173A8C951AA36231F675F903A3FD3EBFA07930B7FC297 ====
Код:
REM GENRE Blues
REM DATE 2012
REM DISCID 000D3C14
REM COMMENT "ExactAudioCopy v1.5"
PERFORMER "Various Artists"
TITLE "Chicago Blues: The Absolutely Essential 3 CD Collection (Disc 3)"
REM COMPOSER ""
FILE "01 - Jimmy Reed -  Bright Lights, Big City.wav" WAVE
  TRACK 01 AUDIO
    TITLE "Bright Lights, Big City"
    PERFORMER "Jimmy Reed"
    REM COMPOSER "Jimmy Reed"
    ISRC GBEEJ1200347
    INDEX 01 00:00:00
FILE "02 - Muddy Waters -  Got My Mojo Working.wav" WAVE
  TRACK 02 AUDIO
    TITLE "Got My Mojo Working"
    PERFORMER "Muddy Waters"
    REM COMPOSER "Little Willie Foster"
    ISRC GBEEJ0900613
    INDEX 01 00:00:00
FILE "03 - Little Walter -  Juke.wav" WAVE
  TRACK 03 AUDIO
    TITLE "Juke"
    PERFORMER "Little Walter"
    REM COMPOSER "Little Willie Foster"
    ISRC GBEEJ0400105
    INDEX 01 00:00:00
FILE "04 - Howlin' Wolf -  Wang Dang Doodle.wav" WAVE
  TRACK 04 AUDIO
    TITLE "Wang Dang Doodle"
    PERFORMER "Howlin' Wolf"
    REM COMPOSER "Willie Dixon"
    ISRC GBEEJ1200309
    INDEX 01 00:00:00
FILE "05 - Willie Nix -  Just Can't Say.wav" WAVE
  TRACK 05 AUDIO
    TITLE "Just Can't Say"
    PERFORMER "Willie Nix"
    REM COMPOSER "Willie Nix"
    ISRC GBEEJ0901852
    INDEX 01 00:00:00
FILE "06 - Junior Wells -  Bout the Break of Day.wav" WAVE
  TRACK 06 AUDIO
    TITLE "Bout the Break of Day"
    PERFORMER "Junior Wells"
    REM COMPOSER "Sonny Boy Williamson II"
    ISRC GBEEJ0900639
    INDEX 01 00:00:00
FILE "07 - Sonny Boy Williamson II -  Don't Start Me Talking.wav" WAVE
  TRACK 07 AUDIO
    TITLE "Don't Start Me Talking"
    PERFORMER "Sonny Boy Williamson II"
    REM COMPOSER "Sonny Boy Williamson II"
    ISRC GBEEJ0702121
    INDEX 01 00:00:00
FILE "08 - Lowell Fulson -  Do Me Right.wav" WAVE
  TRACK 08 AUDIO
    TITLE "Do Me Right"
    PERFORMER "Lowell Fulson"
    REM COMPOSER "Willie Dixon"
    ISRC GBEEJ1200300
    INDEX 01 00:00:00
FILE "09 - Muddy Waters -  I'm Ready.wav" WAVE
  TRACK 09 AUDIO
    TITLE "I'm Ready"
    PERFORMER "Muddy Waters"
    REM COMPOSER "Willie Dixon"
    ISRC GBEEJ0600266
    INDEX 01 00:00:00
FILE "10 - Howlin' Wolf -  How Many More Years.wav" WAVE
  TRACK 10 AUDIO
    TITLE "How Many More Years"
    PERFORMER "Howlin' Wolf"
    REM COMPOSER "Willie Dixon"
    ISRC GBEEJ0400001
    INDEX 01 00:00:00
FILE "11 - Jimmy Reed -  Hush Hush.wav" WAVE
  TRACK 11 AUDIO
    TITLE "Hush Hush"
    PERFORMER "Jimmy Reed"
    REM COMPOSER "Jimmy Reed"
    ISRC GBEEJ1200333
    INDEX 01 00:00:00
FILE "12 - Magic Sam -  All Night Long.wav" WAVE
  TRACK 12 AUDIO
    TITLE "All Night Long"
    PERFORMER "Magic Sam"
    REM COMPOSER "Jimmy Reed"
    ISRC GBEEJ1200319
    INDEX 01 00:00:00
FILE "13 - Junior Wells -  I Could Cry.wav" WAVE
  TRACK 13 AUDIO
    TITLE "I Could Cry"
    PERFORMER "Junior Wells"
    REM COMPOSER "Jimmy Reed"
    ISRC GBEEJ1200289
    INDEX 01 00:00:00
FILE "14 - Little Walter -  My Babe.wav" WAVE
  TRACK 14 AUDIO
    TITLE "My Babe"
    PERFORMER "Little Walter"
    REM COMPOSER "Willie Dixon"
    ISRC GBEEJ0702136
    INDEX 01 00:00:00
FILE "15 - Big Walter Horton -  Have a Good Time.wav" WAVE
  TRACK 15 AUDIO
    TITLE "Have a Good Time"
    PERFORMER "Big Walter Horton"
    REM COMPOSER "Willie Dixon"
    ISRC GBEEJ0801268
    INDEX 01 00:00:00
FILE "16 - Howlin' Wolf -  Evil.wav" WAVE
  TRACK 16 AUDIO
    TITLE "Evil"
    PERFORMER "Howlin' Wolf"
    REM COMPOSER "Willie Dixon"
    ISRC GBEEJ0800270
    INDEX 01 00:00:00
FILE "17 - Muddy Waters -  I'm Your Hoochie Coochie Man.wav" WAVE
  TRACK 17 AUDIO
    TITLE "I'm Your Hoochie Coochie Man"
    PERFORMER "Muddy Waters"
    REM COMPOSER "Willie Dixon"
    ISRC GBEEJ0600262
    INDEX 01 00:00:00
FILE "18 - Eddie Boyd -  Third Degree.wav" WAVE
  TRACK 18 AUDIO
    TITLE "Third Degree"
    PERFORMER "Eddie Boyd"
    REM COMPOSER "Eddie Boyd"
    ISRC GBEEJ1200305
    INDEX 01 00:00:00
FILE "19 - Otis Rush -  It Takes Time.wav" WAVE
  TRACK 19 AUDIO
    TITLE "It Takes Time"
    PERFORMER "Otis Rush"
    REM COMPOSER "Otis Rush"
    ISRC GBEEJ1200317
    INDEX 01 00:00:00
FILE "20 - Jimmy Reed -  Big Boss Man.wav" WAVE
  TRACK 20 AUDIO
    TITLE "Big Boss Man"
    PERFORMER "Jimmy Reed"
    REM COMPOSER "Willie Dixon"
    ISRC GBEEJ1200330
    INDEX 01 00:00:00
Код:
-----------------------
DON'T MODIFY THIS FILE
-----------------------
PERFORMER: auCDtect Task Manager, ver. 1.6.0 RC1 build 1.6.0.1
Copyright (c) 2008-2010 y-soft. All rights reserved
[url=http://y-soft.org]http://y-soft.org[/url]
ANALYZER: auCDtect: CD records authenticity detector, version 0.8.2
Copyright (c) 2004 Oleg Berngardt. All rights reserved.
Copyright (c) 2004 Alexander Djourik. All rights reserved.
FILE: 20 - Jimmy Reed -  Big Boss Man.flac
  Size: 18674400 Hash: EB5E59C589EB10ECC83FB48B5132D091 Accuracy: -m0
  Conclusion: CDDA 100%
  Signature: BF5A302CC3D444711C85443FD498FC5576C78C63
FILE: 19 - Otis Rush -  It Takes Time.flac
  Size: 15515896 Hash: 4CEF2E4EFE771B1638C19026D418322A Accuracy: -m0
  Conclusion: CDDA 100%
  Signature: E4BFFB48F4EDC2156A44D8B7EA6E535D09AA2FE4
FILE: 18 - Eddie Boyd -  Third Degree.flac
  Size: 15257572 Hash: F8DC41A3EC8CFE4AC4D8C7BACA386D53 Accuracy: -m0
  Conclusion: CDDA 100%
  Signature: 7002398F1D51F6CB77A5AFDF134E8573AD6ED8F9
FILE: 17 - Muddy Waters -  I'm Your Hoochie Coochie Man.flac
  Size: 9222628 Hash: C2C32B965564A98E4FBA075EC8E51C29 Accuracy: -m0
  Conclusion: CDDA 100%
  Signature: FB80082814A0892013C191CB674BA62D13865E9B
FILE: 16 - Howlin' Wolf -  Evil.flac
  Size: 12516671 Hash: 17A4EE62518948C107685C2E6A7622DB Accuracy: -m0
  Conclusion: CDDA 94%
  Signature: 457CAED619B49A77264AE8B3757EC206E5757637
FILE: 15 - Big Walter Horton -  Have a Good Time.flac
  Size: 12379113 Hash: 388BAC07EF9CFD51FD628EC270BD3630 Accuracy: -m0
  Conclusion: CDDA 100%
  Signature: A44A4EC88B46121FF82DA1B5CA30D404308DA953
FILE: 14 - Little Walter -  My Babe.flac
  Size: 16792939 Hash: 6B72E07D644AE3299AAC51219E639585 Accuracy: -m0
  Conclusion: CDDA 100%
  Signature: B58DA1440AEFB3FC4D765E300084DEF5ED4C0820
FILE: 13 - Junior Wells -  I Could Cry.flac
  Size: 15457956 Hash: 54C4A48F117DBBE71CCDAAC468C1830F Accuracy: -m0
  Conclusion: MPEG 89%
  Signature: 597F116DE6A1ED03E4F49E2D88E91ECD9C203F46
FILE: 12 - Magic Sam -  All Night Long.flac
  Size: 15028298 Hash: 52A8A8F46F969C2D2DE3F2ACC1762CCB Accuracy: -m0
  Conclusion: CDDA 100%
  Signature: 36A6E2089E097A474F6ECBFB6FE196D6CA4F31EB
FILE: 11 - Jimmy Reed -  Hush Hush.flac
  Size: 16146187 Hash: 3C5C355ADEECD9A3089EEC336D174B4A Accuracy: -m0
  Conclusion: CDDA 100%
  Signature: 34B243794CABC4220746B93DD1072F5B0880EBEF
FILE: 10 - Howlin' Wolf -  How Many More Years.flac
  Size: 10031162 Hash: AA70B984BB0BC9D9351B0ADFCBEE628E Accuracy: -m0
  Conclusion: MPEG 95%
  Signature: D809167DC9074B33682148ADE4D82077EBC8BE1F
FILE: 09 - Muddy Waters -  I'm Ready.flac
  Size: 10450277 Hash: E657E8E8C8695AC6859B284BCF655898 Accuracy: -m0
  Conclusion: CDDA 100%
  Signature: 6EF4C763E6647F9107FF3AE8963D288F778024CF
FILE: 08 - Lowell Fulson -  Do Me Right.flac
  Size: 16095876 Hash: 56A236CC4A784F1668E30EF2EDFCADAE Accuracy: -m0
  Conclusion: CDDA 99%
  Signature: 56D27240FDEFD36E4B08E279B6233A3F359AA16C
FILE: 07 - Sonny Boy Williamson II -  Don't Start Me Talking.flac
  Size: 9816845 Hash: A0BE696D9CA67F09A246F15EBB711296 Accuracy: -m0
  Conclusion: CDDA 100%
  Signature: 2936BA6D5D81CCC535D9D633A17AAE0BFEF19D3F
FILE: 06 - Junior Wells -  Bout the Break of Day.flac
  Size: 15044536 Hash: 5DE4ED67A67860E3ACA208BEFCE5956B Accuracy: -m0
  Conclusion: CDDA 100%
  Signature: 7E4CD624D1AB8B5586E5BF0E4BD32FFBF6DEC67E
FILE: 05 - Willie Nix -  Just Can't Say.flac
  Size: 7479425 Hash: 8E5BB18E923D6ABB168CCF9DAD885DDF Accuracy: -m0
  Conclusion: CDDA 92%
  Signature: A26CBFD33BDF624C3C9814BC9FDDB3E0E7DFC44E
FILE: 04 - Howlin' Wolf -  Wang Dang Doodle.flac
  Size: 16261876 Hash: 36BF23993710433266DDC6F16EDE030B Accuracy: -m0
  Conclusion: CDDA 99%
  Signature: 2CDDA8DFF7046B5DD6535046F752968C3BF336AE
FILE: 03 - Little Walter -  Juke.flac
  Size: 18349383 Hash: BD10BFFAB6EEE64928B9BD86EEA12EDF Accuracy: -m0
  Conclusion: CDDA 100%
  Signature: 9446835CA045364A3BD982A24A8B6A44B9374AFE
FILE: 02 - Muddy Waters -  Got My Mojo Working.flac
  Size: 19023424 Hash: 4E7062ADDB3FED6D8B4C836F30173E20 Accuracy: -m0
  Conclusion: CDDA 100%
  Signature: D7721139A0E2A1E2FC84B29DCA7DCA5ACB38FC8E
FILE: 01 - Jimmy Reed -  Bright Lights, Big City.flac
  Size: 18045099 Hash: D44ACACA72BEA3CB20F4D9B1A9B355B5 Accuracy: -m0
  Conclusion: CDDA 100%
  Signature: D016E0FF33A578F932343908FB8411C9517E2501
Прoдолжительность: 00:56:29
https://www.discogs.com/Various-Chicago-Blues-The-Absolutely-Essential-3-CD-Colle.../release/8251287
Big3 - BT3061 Format: 3CD, Compilation Country: UK Released: 2012
https://www.allmusic.com/album/chicago-blues-the-absolutely-essential-3-cd-collection-mw0002406780
Все великое в этой коллекции: и люди, прославившие чикагский блюз, и песни, созданные ими, которые, ставшие классикой, мы помним, знаем до сих пор.
I can't argue with the part that says "Absolutely Essential", because it is. Lots of hits & classic tracks by Muddy, Howlin' Wolf, Buddy Guy, Etta James, Little Walter & others, alongside even more obscure tracks that might be a bit harder to find otherwise. Great sound & a superb collection of classic blues, even if some of it didn't come from Chicago, (John Lee Hooker for one), that is an excellent starting point for a newbie to the blues, as well as being a great collection for those of us that have been blues fans for many years. Mark Moore
Правила, инструкции, FAQ!!!
Торрент  Добавлен [12 мар 2021, 21:57] Скачать торрент Магнет ссылка
Скачать торрент
[ Размер 37.18 КБ / Просмотров 11 ]

Статус
Проверен 
 
Размер  771.18 МБ
Приватный: Нет (DHT включён)
.torrent скачан  1
 


     Отправить личное сообщение
   
Страница 1 из 1
Показать сообщения за:  Поле сортировки  
Начать новую тему Ответить на тему


Сейчас этот форум просматривают: нет зарегистрированных пользователей и гости: 0


Вы не можете начинать темы
Вы не можете отвечать на сообщения
Вы не можете редактировать свои сообщения
Вы не можете удалять свои сообщения
Вы не можете добавлять вложения

Перейти:  
cron