Начать новую тему Ответить на тему
Статистика раздачи
Размер: 125.33 МБ | Добавлен: 01 янв 2020, 23:07 | Скачали: 0
Сидеров: 0  [0 байт/сек]    Личеров: 0  [0 байт/сек]
Пред. тема | След. тема 

Автор
Сообщение

СообщениеДобавлено: 01 янв 2020, 23:07 

Ответить с цитатой 

Café de Paris - Cafe de Paris The soho collection CD 1
Жанр: Chansons françaises
Год выпуска диска: 2005
Производитель диска: France
Аудио кодек: FLAC
Тип рипа: tracks+.cue
Битрейт аудио: lossless
Продолжительность: 1h01mn
Трэклист:
1. La mer (Beyond the sea) - Charles Trenet
2. Le grand cafe - Charles Trenet
3. Mes jeunes annees (In my younger days) - Charles Trenet
4. Douce France (Gentle France) - Charles Trenet
5. Terre! (Earth) - Charles Trenet
6. Verlaine - Charles Trenet
7. Retour a Paris (Return to Paris) - Charles Trenet
8. Le retour des saisons (As seasons come and go) - Charles Trenet
9. Boum! - Charles Trenet
10. Que reste-t-il de nos amours? - Charles Trenet
11. Je suis sex appeal - Jean Sablon
12. Prenez garde au mechant loup! - Jean Sablon
13. Rythme du bal continental (The continental) - Jean Sablon
14. Je sais que vous etes jolie! - Jean Sablon
15. Un amour comme le notre - Jean Sablon
16. Cette chanson est pour vous (Life is a song) - Jean Sablon
17. Vous qui passez sans me voir - Jean Sablon
18. J'attendrai - Jean Sablon
19. Sur le Pont D'Avignon - Jean Sablon
20. Paris, tu n'as pas change - Jean Sablon
Код:
Exact Audio Copy V0.99 prebeta 5 from 4. May 2009
EAC extraction logfile from 4. February 2010, 23:54
Cafй de Paris / Cafe de Paris The soho collection CD 1
Used drive  : HL-DT-STDVD-ROM GDR8163B   Adapter: 3  ID: 1
Read mode               : Secure
Utilize accurate stream : Yes
Defeat audio cache      : Yes
Make use of C2 pointers : Yes
Read offset correction                      : 102
Overread into Lead-In and Lead-Out          : No
Fill up missing offset samples with silence : Yes
Delete leading and trailing silent blocks   : No
Null samples used in CRC calculations       : Yes
Used interface                              : Native Win32 interface for Win NT & 2000
Gap handling                                : Appended to previous track
Used output format              : User Defined Encoder
Selected bitrate                : 192 kBit/s
Quality                         : High
Add ID3 tag                     : No
Command line compressor         : C:\Program Files\Exact Audio Copy\FLAC\FLAC.EXE
Additional command line options : -2 -V -T "ARTIST=%a" -T "TITLE=%t" -T "ALBUM=%g" -T "DATE=%y" -T "TRACKNUMBER=%n" -T "GENRE=%m" -T "COMMENT=%e" %s -o %d  --picture=|image/jpeg|||c:/coverdir/cover.jpg
TOC of the extracted CD
     Track |   Start  |  Length  | Start sector | End sector
    ---------------------------------------------------------
        1  |  0:00.00 |  3:27.39 |         0    |    15563
        2  |  3:27.39 |  2:15.55 |     15564    |    25743
        3  |  5:43.19 |  3:19.07 |     25744    |    40675
        4  |  9:02.26 |  3:11.12 |     40676    |    55012
        5  | 12:13.38 |  2:38.47 |     55013    |    66909
        6  | 14:52.10 |  3:28.04 |     66910    |    82513
        7  | 18:20.14 |  3:03.05 |     82514    |    96243
        8  | 21:23.19 |  3:14.50 |     96244    |   110843
        9  | 24:37.69 |  2:38.12 |    110844    |   122705
       10  | 27:16.06 |  3:16.50 |    122706    |   137455
       11  | 30:32.56 |  3:07.00 |    137456    |   151480
       12  | 33:39.56 |  2:41.57 |    151481    |   163612
       13  | 36:21.38 |  3:07.54 |    163613    |   177691
       14  | 39:29.17 |  3:10.49 |    177692    |   191990
       15  | 42:39.66 |  3:10.52 |    191991    |   206292
       16  | 45:50.43 |  3:15.52 |    206293    |   220969
       17  | 49:06.20 |  3:09.15 |    220970    |   235159
       18  | 52:15.35 |  3:06.07 |    235160    |   249116
       19  | 55:21.42 |  2:34.67 |    249117    |   260733
       20  | 57:56.34 |  3:06.00 |    260734    |   274683
Track  1
     Filename D:\Cafй de Paris - Cafe de Paris The soho collection CD 1 - 01. Charles Trenet -La mer (beyond the sea).wav
     Pre-gap length  0:00:02.00
     Peak level 89.2 %
     Track quality 100.0 %
     Copy CRC D5598219
     Accurately ripped (confidence 4)  [B2703DCA]
     Copy OK
Track  2
     Filename D:\Cafй de Paris - Cafe de Paris The soho collection CD 1 - 02. Charles Trenet -Le grand cafй.wav
     Pre-gap length  0:00:02.00
     Peak level 83.5 %
     Track quality 100.0 %
     Copy CRC E3E876C3
     Accurately ripped (confidence 4)  [1EC09E82]
     Copy OK
Track  3
     Filename D:\Cafй de Paris - Cafe de Paris The soho collection CD 1 - 03. Charles Trenet -Mes jeunes annees (in my younger days).wav
     Pre-gap length  0:00:02.00
     Peak level 89.2 %
     Track quality 100.0 %
     Copy CRC 44667985
     Accurately ripped (confidence 4)  [E312FC9B]
     Copy OK
Track  4
     Filename D:\Cafй de Paris - Cafe de Paris The soho collection CD 1 - 04. Charles Trenet -Douce France (gentle France).wav
     Pre-gap length  0:00:02.00
     Peak level 66.4 %
     Track quality 100.0 %
     Copy CRC 5E74B783
     Accurately ripped (confidence 4)  [79C5189C]
     Copy OK
Track  5
     Filename D:\Cafй de Paris - Cafe de Paris The soho collection CD 1 - 05. Charles Trenet -Terre! (Earth!).wav
     Pre-gap length  0:00:02.00
     Peak level 94.8 %
     Track quality 100.0 %
     Copy CRC 87D31504
     Accurately ripped (confidence 4)  [B281A6CA]
     Copy OK
Track  6
     Filename D:\Cafй de Paris - Cafe de Paris The soho collection CD 1 - 06. Charles Trenet -Verlaine.wav
     Pre-gap length  0:00:02.00
     Peak level 83.9 %
     Track quality 100.0 %
     Copy CRC A78E930F
     Accurately ripped (confidence 4)  [D366F966]
     Copy OK
Track  7
     Filename D:\Cafй de Paris - Cafe de Paris The soho collection CD 1 - 07. Charles Trenet -Retour а Paris (return to Paris).wav
     Pre-gap length  0:00:02.00
     Peak level 62.2 %
     Track quality 100.0 %
     Copy CRC D9E832AE
     Accurately ripped (confidence 4)  [7626F69A]
     Copy OK
Track  8
     Filename D:\Cafй de Paris - Cafe de Paris The soho collection CD 1 - 08. Charles Trenet -Les retour des saisons (as seasons come and go).wav
     Pre-gap length  0:00:02.00
     Peak level 90.4 %
     Track quality 100.0 %
     Copy CRC B7A97334
     Accurately ripped (confidence 4)  [CCE59500]
     Copy OK
Track  9
     Filename D:\Cafй de Paris - Cafe de Paris The soho collection CD 1 - 09. Charles Trenet -Boum!.wav
     Pre-gap length  0:00:02.00
     Peak level 62.4 %
     Track quality 100.0 %
     Copy CRC C47F5070
     Accurately ripped (confidence 4)  [AD6455F5]
     Copy OK
Track 10
     Filename D:\Cafй de Paris - Cafe de Paris The soho collection CD 1 - 10. Charles Trenet -Que reste-T-Il de nos amours .wav
     Pre-gap length  0:00:02.00
     Peak level 54.4 %
     Track quality 99.8 %
     Copy CRC 0F3BBE46
     Accurately ripped (confidence 4)  [7005E614]
     Copy OK
Track 11
     Filename D:\Cafй de Paris - Cafe de Paris The soho collection CD 1 - 11. Jean Sablon -Je suis sex appeal.wav
     Pre-gap length  0:00:02.00
     Peak level 71.7 %
     Track quality 100.0 %
     Copy CRC 53A52638
     Accurately ripped (confidence 4)  [FBC84006]
     Copy OK
Track 12
     Filename D:\Cafй de Paris - Cafe de Paris The soho collection CD 1 - 12. Jean Sablon -Prenez garde au mйchant loup!.wav
     Pre-gap length  0:00:02.00
     Peak level 84.2 %
     Track quality 100.0 %
     Copy CRC C3B0CBB3
     Accurately ripped (confidence 4)  [56DEEFBF]
     Copy OK
Track 13
     Filename D:\Cafй de Paris - Cafe de Paris The soho collection CD 1 - 13. Jean Sablon -Rythme du bal continental (the continental).wav
     Pre-gap length  0:00:02.00
     Peak level 54.3 %
     Track quality 100.0 %
     Copy CRC 20DB0B0F
     Accurately ripped (confidence 4)  [37D27D72]
     Copy OK
Track 14
     Filename D:\Cafй de Paris - Cafe de Paris The soho collection CD 1 - 14. Jean Sablon -Je sais que vous кtes Jolie!.wav
     Pre-gap length  0:00:02.00
     Peak level 71.8 %
     Track quality 100.0 %
     Copy CRC 4C0FB873
     Accurately ripped (confidence 4)  [E826E9B0]
     Copy OK
Track 15
     Filename D:\Cafй de Paris - Cafe de Paris The soho collection CD 1 - 15. Jean Sablon -Un amour comme le notre.wav
     Pre-gap length  0:00:02.00
     Peak level 74.7 %
     Track quality 100.0 %
     Copy CRC 9FF3DC35
     Accurately ripped (confidence 3)  [D5859D78]
     Copy OK
Track 16
     Filename D:\Cafй de Paris - Cafe de Paris The soho collection CD 1 - 16. Jean Sablon -Cette chanson est pour vous (life is a song).wav
     Pre-gap length  0:00:02.00
     Peak level 65.5 %
     Track quality 99.8 %
     Copy CRC 12B172B8
     Accurately ripped (confidence 3)  [6D1FDDC1]
     Copy OK
Track 17
     Filename D:\Cafй de Paris - Cafe de Paris The soho collection CD 1 - 17. Jean Sablon - Vous qui passez sans me voir.wav
     Pre-gap length  0:00:02.00
     Peak level 77.8 %
     Track quality 99.8 %
     Copy CRC AB6C6A87
     Accurately ripped (confidence 3)  [04C05E28]
     Copy OK
Track 18
     Filename D:\Cafй de Paris - Cafe de Paris The soho collection CD 1 - 18. Jean Sablon -Jґattendrai.wav
     Pre-gap length  0:00:02.00
     Peak level 100.0 %
     Track quality 100.0 %
     Copy CRC 1C982BE8
     Accurately ripped (confidence 4)  [1874B58C]
     Copy OK
Track 19
     Filename D:\Cafй de Paris - Cafe de Paris The soho collection CD 1 - 19. Jean Sablon -Sur le pont dґavignon.wav
     Pre-gap length  0:00:02.00
     Peak level 99.9 %
     Track quality 99.8 %
     Copy CRC BA3036A2
     Accurately ripped (confidence 4)  [4E86D4BC]
     Copy OK
Track 20
     Filename D:\Cafй de Paris - Cafe de Paris The soho collection CD 1 - 20. Jean Sablon -Paris, tu nґas pas changй.wav
     Pre-gap length  0:00:02.00
     Peak level 84.2 %
     Track quality 100.0 %
     Copy CRC E322ACEF
     Accurately ripped (confidence 4)  [D6BB87CC]
     Copy OK
All tracks accurately ripped
No errors occurred
End of status report
Код:
REM GENRE "French Chansons"
REM DATE 2002
REM DISCID 1A0E4E14
REM COMMENT "ExactAudioCopy v0.99pb5"
PERFORMER "Cafй de Paris"
TITLE "Cafe de Paris The soho collection CD 1"
FILE "Cafй de Paris - Cafe de Paris The soho collection CD 1 - 01. Charles Trenet -La mer (beyond the sea).wav" WAVE
  TRACK 01 AUDIO
    TITLE "Charles Trenet -La mer (beyond the sea)"
    PERFORMER "Cafй de Paris"
    INDEX 01 00:00:00
  TRACK 02 AUDIO
    TITLE "Charles Trenet -Le grand cafй"
    PERFORMER "Cafй de Paris"
    INDEX 00 03:25:39
FILE "Cafй de Paris - Cafe de Paris The soho collection CD 1 - 02. Charles Trenet -Le grand cafй.wav" WAVE
    INDEX 01 00:00:00
  TRACK 03 AUDIO
    TITLE "Charles Trenet -Mes jeunes annees (in my younger days)"
    PERFORMER "Cafй de Paris"
    INDEX 00 02:13:55
FILE "Cafй de Paris - Cafe de Paris The soho collection CD 1 - 03. Charles Trenet -Mes jeunes annees (in my younger days).wav" WAVE
    INDEX 01 00:00:00
  TRACK 04 AUDIO
    TITLE "Charles Trenet -Douce France (gentle France)"
    PERFORMER "Cafй de Paris"
    INDEX 00 03:17:07
FILE "Cafй de Paris - Cafe de Paris The soho collection CD 1 - 04. Charles Trenet -Douce France (gentle France).wav" WAVE
    INDEX 01 00:00:00
  TRACK 05 AUDIO
    TITLE "Charles Trenet -Terre! (Earth!)"
    PERFORMER "Cafй de Paris"
    INDEX 00 03:09:12
FILE "Cafй de Paris - Cafe de Paris The soho collection CD 1 - 05. Charles Trenet -Terre! (Earth!).wav" WAVE
    INDEX 01 00:00:00
  TRACK 06 AUDIO
    TITLE "Charles Trenet -Verlaine"
    PERFORMER "Cafй de Paris"
    INDEX 00 02:36:47
FILE "Cafй de Paris - Cafe de Paris The soho collection CD 1 - 06. Charles Trenet -Verlaine.wav" WAVE
    INDEX 01 00:00:00
  TRACK 07 AUDIO
    TITLE "Charles Trenet -Retour а Paris (return to Paris)"
    PERFORMER "Cafй de Paris"
    INDEX 00 03:26:04
FILE "Cafй de Paris - Cafe de Paris The soho collection CD 1 - 07. Charles Trenet -Retour а Paris (return to Paris).wav" WAVE
    INDEX 01 00:00:00
  TRACK 08 AUDIO
    TITLE "Charles Trenet -Les retour des saisons (as seasons come and go)"
    PERFORMER "Cafй de Paris"
    INDEX 00 03:01:05
FILE "Cafй de Paris - Cafe de Paris The soho collection CD 1 - 08. Charles Trenet -Les retour des saisons (as seasons come and go).wav" WAVE
    INDEX 01 00:00:00
  TRACK 09 AUDIO
    TITLE "Charles Trenet -Boum!"
    PERFORMER "Cafй de Paris"
    INDEX 00 03:12:50
FILE "Cafй de Paris - Cafe de Paris The soho collection CD 1 - 09. Charles Trenet -Boum!.wav" WAVE
    INDEX 01 00:00:00
  TRACK 10 AUDIO
    TITLE "Charles Trenet -Que reste-T-Il de nos amours?"
    PERFORMER "Cafй de Paris"
    INDEX 00 02:36:12
FILE "Cafй de Paris - Cafe de Paris The soho collection CD 1 - 10. Charles Trenet -Que reste-T-Il de nos amours .wav" WAVE
    INDEX 01 00:00:00
  TRACK 11 AUDIO
    TITLE "Jean Sablon -Je suis sex appeal"
    PERFORMER "Cafй de Paris"
    INDEX 00 03:14:50
FILE "Cafй de Paris - Cafe de Paris The soho collection CD 1 - 11. Jean Sablon -Je suis sex appeal.wav" WAVE
    INDEX 01 00:00:00
  TRACK 12 AUDIO
    TITLE "Jean Sablon -Prenez garde au mйchant loup!"
    PERFORMER "Cafй de Paris"
    INDEX 00 03:05:00
FILE "Cafй de Paris - Cafe de Paris The soho collection CD 1 - 12. Jean Sablon -Prenez garde au mйchant loup!.wav" WAVE
    INDEX 01 00:00:00
  TRACK 13 AUDIO
    TITLE "Jean Sablon -Rythme du bal continental (the continental)"
    PERFORMER "Cafй de Paris"
    INDEX 00 02:39:57
FILE "Cafй de Paris - Cafe de Paris The soho collection CD 1 - 13. Jean Sablon -Rythme du bal continental (the continental).wav" WAVE
    INDEX 01 00:00:00
  TRACK 14 AUDIO
    TITLE "Jean Sablon -Je sais que vous кtes Jolie!"
    PERFORMER "Cafй de Paris"
    INDEX 00 03:05:54
FILE "Cafй de Paris - Cafe de Paris The soho collection CD 1 - 14. Jean Sablon -Je sais que vous кtes Jolie!.wav" WAVE
    INDEX 01 00:00:00
  TRACK 15 AUDIO
    TITLE "Jean Sablon -Un amour comme le notre"
    PERFORMER "Cafй de Paris"
    INDEX 00 03:08:49
FILE "Cafй de Paris - Cafe de Paris The soho collection CD 1 - 15. Jean Sablon -Un amour comme le notre.wav" WAVE
    INDEX 01 00:00:00
  TRACK 16 AUDIO
    TITLE "Jean Sablon -Cette chanson est pour vous (life is a song)"
    PERFORMER "Cafй de Paris"
    INDEX 00 03:08:52
FILE "Cafй de Paris - Cafe de Paris The soho collection CD 1 - 16. Jean Sablon -Cette chanson est pour vous (life is a song).wav" WAVE
    INDEX 01 00:00:00
  TRACK 17 AUDIO
    TITLE "Jean Sablon - Vous qui passez sans me voir"
    PERFORMER "Cafй de Paris"
    INDEX 00 03:13:52
FILE "Cafй de Paris - Cafe de Paris The soho collection CD 1 - 17. Jean Sablon - Vous qui passez sans me voir.wav" WAVE
    INDEX 01 00:00:00
  TRACK 18 AUDIO
    TITLE "Jean Sablon -Jґattendrai"
    PERFORMER "Cafй de Paris"
    INDEX 00 03:07:15
FILE "Cafй de Paris - Cafe de Paris The soho collection CD 1 - 18. Jean Sablon -Jґattendrai.wav" WAVE
    INDEX 01 00:00:00
  TRACK 19 AUDIO
    TITLE "Jean Sablon -Sur le pont dґavignon"
    PERFORMER "Cafй de Paris"
    INDEX 00 03:04:07
FILE "Cafй de Paris - Cafe de Paris The soho collection CD 1 - 19. Jean Sablon -Sur le pont dґavignon.wav" WAVE
    INDEX 01 00:00:00
  TRACK 20 AUDIO
    TITLE "Jean Sablon -Paris, tu nґas pas changй"
    PERFORMER "Cafй de Paris"
    INDEX 00 02:32:67
FILE "Cafй de Paris - Cafe de Paris The soho collection CD 1 - 20. Jean Sablon -Paris, tu nґas pas changй.wav" WAVE
    INDEX 01 00:00:00
Правила, инструкции, FAQ!!!
Торрент  Добавлен [01 янв 2020, 23:07] Скачать торрент Магнет ссылка
Скачать торрент
[ Размер 23 КБ / Просмотров 0 ]

Статус
Проверен 
 
Размер  125.33 МБ
Приватный: Нет (DHT включён)
.torrent скачан  0
 


     Отправить личное сообщение
   
Страница 1 из 1
Показать сообщения за:  Поле сортировки  
Начать новую тему Ответить на тему


Сейчас этот форум просматривают: нет зарегистрированных пользователей и гости: 0


Вы не можете начинать темы
Вы не можете отвечать на сообщения
Вы не можете редактировать свои сообщения
Вы не можете удалять свои сообщения
Вы не можете добавлять вложения

Перейти:  
cron