Начать новую тему Ответить на тему
Статистика раздачи
Размер: 215.91 МБ | Добавлен: 01 янв 2020, 22:59 | Скачали: 1
Сидеров: 30  [0 байт/сек]    Личеров: 0  [0 байт/сек]
Пред. тема | След. тема 

Автор
Сообщение

СообщениеДобавлено: 01 янв 2020, 22:59 

Ответить с цитатой 

Yves Montand - Le Paris De Montand


Жанр: Chanson
Год выпуска диска: 1964
Производитель диска: Austria
Label : COLUMBIA
Аудио кодек: FLAC
Тип рипа: image+.cue + scans
Битрейт аудио: lossless
Продолжительность: 41:56
Трэклист:
01 Paris Canaille
02 La Vie En Rose
03 Le Chevalier De Paris
04 L'Ame Des Poetes
05 Sous Le Ciel De Paris
06 Les Feuilles Mortes
07 C'Est Si Bon
08 Sa Jeunesse
09 Mon Manege A Moi
10 A Paris Dans Chaque Faubourg
11 Marie Marie
12 A Paris
Код:
Exact Audio Copy V0.99 prebeta 4 from 23. January 2008
Отчёт EAC об извлечении, выполненном 26. сентября 2009, 0:02
Yves Montand / Le Paris de Montand
Дисковод: PIONEER DVD-RW  DVR-212   Adapter: 7  ID: 0
Режим чтения                 : Достоверность
Использование точного потока : Да
Отключение кэша аудио        : Да
Использование указателей C2  : Нет
Коррекция смещения при чтении                     : 48
Способность читать области Lead-in и Lead-out     : Нет
Заполнение пропущенных сэмплов тишиной            : Да
Удаление блоков с тишиной в начале и конце        : Нет
При вычислениях CRC использовались нулевые сэмплы : Да
Интерфейс                                         : Установленный внешний ASPI-интерфейс
Выходной формат : Внутренние WAV-операции
Формат сэмплов  : 44.100 Гц; 16 бит; стерео
TOC извлечённого CD
     Трек |   Старт  | Длительность | Начальный сектор | Конечный сектор
    ---------------------------------------------------------------------
       1  |  0:00.32 |    3:15.35   |          32      |      14691
       2  |  3:15.67 |    3:20.33   |       14692      |      29724
       3  |  6:36.25 |    4:08.40   |       29725      |      48364
       4  | 10:44.65 |    2:50.47   |       48365      |      61161
       5  | 13:35.37 |    2:57.10   |       61162      |      74446
       6  | 16:32.47 |    3:09.20   |       74447      |      88641
       7  | 19:41.67 |    3:34.60   |       88642      |     104751
       8  | 23:16.52 |    4:27.15   |      104752      |     124791
       9  | 27:43.67 |    3:50.23   |      124792      |     142064
      10  | 31:34.15 |    3:43.37   |      142065      |     158826
      11  | 35:17.52 |    3:39.73   |      158827      |     175324
      12  | 38:57.50 |    3:03.37   |      175325      |     189086
Характеристики диапазона извлечения и сообщения об ошибках
Выбранный диапазон
     Имя файла B:\MP 3\France Chanson\Yves Montand\Yves Montand - Le Paris De Montand (1964) (FLAC)\Yves Montand - Le Paris de Montand.wav
     Пиковый уровень 94.4 %
     Качество диапазона 100.0 %
     CRC копии 3D9BF21C
     Копирование... OK
Ошибок не произошло
AccurateRip: сводка
Трек  1  точное извлечение (доверие 5)  [41B1F120]
Трек  2  точное извлечение (доверие 5)  [F76ACA87]
Трек  3  точное извлечение (доверие 5)  [6EDE425B]
Трек  4  точное извлечение (доверие 6)  [E0EFC25F]
Трек  5  точное извлечение (доверие 6)  [E76A352E]
Трек  6  точное извлечение (доверие 6)  [6142FE96]
Трек  7  точное извлечение (доверие 6)  [844B911B]
Трек  8  точное извлечение (доверие 6)  [45E4B92B]
Трек  9  точное извлечение (доверие 6)  [2108C917]
Трек 10  точное извлечение (доверие 6)  [4B75B9C3]
Трек 11  точное извлечение (доверие 6)  [0C4D65C4]
Трек 12  точное извлечение (доверие 6)  [E74D1D91]
Все треки извлечены точно
Конец отчёта
Правила, инструкции, FAQ!!!
Торрент  Добавлен [01 янв 2020, 22:59] Скачать торрент Магнет ссылка
Скачать торрент
[ Размер 17.73 КБ / Просмотров 2 ]

Статус
Проверен 
 
Размер  215.91 МБ
Приватный: Нет (DHT включён)
.torrent скачан  1
 


     Отправить личное сообщение
   
Страница 1 из 1
Показать сообщения за:  Поле сортировки  
Начать новую тему Ответить на тему


Сейчас этот форум просматривают: нет зарегистрированных пользователей и гости: 0


Вы не можете начинать темы
Вы не можете отвечать на сообщения
Вы не можете редактировать свои сообщения
Вы не можете удалять свои сообщения
Вы не можете добавлять вложения

Перейти:  
cron