Начать новую тему Ответить на тему
Статистика раздачи
Размер: 363.11 МБ | Добавлен: 01 янв 2020, 22:48 | Скачали: 1
Сидеров: 27  [0 байт/сек]    Личеров: 3  [0 байт/сек]
Пред. тема | След. тема 

Автор
Сообщение

СообщениеДобавлено: 01 янв 2020, 22:48 

Ответить с цитатой 

Yves Montand - Dis-Moi Jo


Жанр: Chanson
Год выпуска диска: 1974
Производитель диска: Austria
Label : COLUMBIA
Аудио кодек: FLAC
Тип рипа: image+.cue + scans
Битрейт аудио: lossless
Продолжительность: 1:14:52
Трэклист:
01 Dis-Moi Jo
02 Car Je T'aime
03 Planter Café
04 Donne-Moi Des Sous
05 L'assassin Du Dimanche
06 Parce Que Ça Me Donne Du Courage
07 La Tête À L'ombre
08 Toi Tu N'ressembles À Personne
09 Du Soleil Plein La Tête
10 Rue Saint-Vincent
11 Bal Petit Bal
12 Les Enfants Qui S'aiment
13 Le Gamin De Paris
14 Mais Qu'est-ce Que J'ai ?
15 Faubourg Saint-Martin
16 Le Chemin Des Oliviers
17 Le Chef D'orchestre Est Amoureux
18 Flamenco De Paris
19 Les Saltimbanques
20 Il Chantait Toujours
21 Barbara
22 Cornet De Frites
23 Une Demoiselle Sur Une Balançoire
24 Rue Lepic
Код:
Exact Audio Copy V0.99 prebeta 4 from 23. January 2008
Отчёт EAC об извлечении, выполненном 25. сентября 2009, 23:47
Yves Montand / Dis-Moi Jo
Дисковод: PIONEER DVD-RW  DVR-212   Adapter: 7  ID: 0
Режим чтения                 : Достоверность
Использование точного потока : Да
Отключение кэша аудио        : Да
Использование указателей C2  : Нет
Коррекция смещения при чтении                     : 48
Способность читать области Lead-in и Lead-out     : Нет
Заполнение пропущенных сэмплов тишиной            : Да
Удаление блоков с тишиной в начале и конце        : Нет
При вычислениях CRC использовались нулевые сэмплы : Да
Интерфейс                                         : Установленный внешний ASPI-интерфейс
Выходной формат : Внутренние WAV-операции
Формат сэмплов  : 44.100 Гц; 16 бит; стерео
TOC извлечённого CD
     Трек |   Старт  | Длительность | Начальный сектор | Конечный сектор
    ---------------------------------------------------------------------
       1  |  0:00.32 |    3:40.60   |          32      |      16591
       2  |  3:41.17 |    2:11.05   |       16592      |      26421
       3  |  5:52.22 |    4:22.15   |       26422      |      46086
       4  | 10:14.37 |    2:33.08   |       46087      |      57569
       5  | 12:47.45 |    2:48.45   |       57570      |      70214
       6  | 15:36.15 |    3:20.70   |       70215      |      85284
       7  | 18:57.10 |    3:29.32   |       85285      |     100991
       8  | 22:26.42 |    2:37.28   |      100992      |     112794
       9  | 25:03.70 |    3:04.42   |      112795      |     126636
      10  | 28:08.37 |    3:25.53   |      126637      |     142064
      11  | 31:34.15 |    2:22.52   |      142065      |     152766
      12  | 33:56.67 |    3:10.53   |      152767      |     167069
      13  | 37:07.45 |    2:32.35   |      167070      |     178504
      14  | 39:40.05 |    2:46.67   |      178505      |     191021
      15  | 42:26.72 |    3:30.68   |      191022      |     206839
      16  | 45:57.65 |    2:03.52   |      206840      |     216116
      17  | 48:01.42 |    5:25.60   |      216117      |     240551
      18  | 53:27.27 |    2:56.03   |      240552      |     253754
      19  | 56:23.30 |    3:44.05   |      253755      |     270559
      20  | 60:07.35 |    2:52.27   |      270560      |     283486
      21  | 62:59.62 |    2:40.05   |      283487      |     295491
      22  | 65:39.67 |    3:22.58   |      295492      |     310699
      23  | 69:02.50 |    3:21.12   |      310700      |     325786
      24  | 72:23.62 |    2:40.20   |      325787      |     337806
Характеристики диапазона извлечения и сообщения об ошибках
Выбранный диапазон
     Имя файла B:\MP 3\France Chanson\Yves Montand\Yves Montand - Dis-Moi Jo (1974) (FLAC)\Yves Montand - Dis-Moi Jo.wav
     Пиковый уровень 100.0 %
     Качество диапазона 99.9 %
     CRC копии B2685CD3
     Копирование... OK
Ошибок не произошло
AccurateRip: сводка
Трек  1  точное извлечение (доверие 2)  [792ED499]
Трек  2  точное извлечение (доверие 2)  [C61B58FF]
Трек  3  точное извлечение (доверие 2)  [4B18C08F]
Трек  4  точное извлечение (доверие 2)  [C1D11BD8]
Трек  5  точное извлечение (доверие 2)  [22BC0B5B]
Трек  6  точное извлечение (доверие 2)  [63AACC28]
Трек  7  точное извлечение (доверие 2)  [40D6AD91]
Трек  8  точное извлечение (доверие 2)  [541AC392]
Трек  9  точное извлечение (доверие 2)  [0DAAB9A0]
Трек 10  точное извлечение (доверие 2)  [6C67F99C]
Трек 11  точное извлечение (доверие 2)  [2C33F624]
Трек 12  точное извлечение (доверие 2)  [563B2A35]
Трек 13  точное извлечение (доверие 2)  [8B2A763B]
Трек 14  точное извлечение (доверие 2)  [1BC88D1E]
Трек 15  точное извлечение (доверие 2)  [16F9DC07]
Трек 16  точное извлечение (доверие 2)  [C74948B6]
Трек 17  точное извлечение (доверие 2)  [C2088261]
Трек 18  точное извлечение (доверие 2)  [8F68AF0E]
Трек 19  точное извлечение (доверие 2)  [6A5422E6]
Трек 20  точное извлечение (доверие 2)  [011CAB85]
Трек 21  точное извлечение (доверие 2)  [476B5EAE]
Трек 22  точное извлечение (доверие 2)  [EF7316E9]
Трек 23  точное извлечение (доверие 2)  [3D1E92C4]
Трек 24  точное извлечение (доверие 2)  [D3D4A5AF]
Все треки извлечены точно
Конец отчёта
Правила, инструкции, FAQ!!!
Торрент  Добавлен [01 янв 2020, 22:48] Скачать торрент Магнет ссылка
Скачать торрент
[ Размер 15.03 КБ / Просмотров 6 ]

Статус
Проверен 
 
Размер  363.11 МБ
Приватный: Нет (DHT включён)
.torrent скачан  1
 


     Отправить личное сообщение
   
Страница 1 из 1
Показать сообщения за:  Поле сортировки  
Начать новую тему Ответить на тему


Сейчас этот форум просматривают: нет зарегистрированных пользователей и гости: 0


Вы не можете начинать темы
Вы не можете отвечать на сообщения
Вы не можете редактировать свои сообщения
Вы не можете удалять свои сообщения
Вы не можете добавлять вложения

Перейти:  
cron