Начать новую тему Ответить на тему
Статистика раздачи
Размер: 223.75 МБ | Добавлен: 01 янв 2020, 22:47 | Скачали: 0
Сидеров: 0  [0 байт/сек]    Личеров: 0  [0 байт/сек]
Пред. тема | След. тема 

Автор
Сообщение

СообщениеДобавлено: 01 янв 2020, 22:47 

Ответить с цитатой 

Ja und Nein... - Deutsche Chansons auf Schellack - Originalaufnahmen von 1934-1943
Жанр: Chanson
Страна: Deutshland
Год издания: 2003
Аудиокодек: FLAC
Тип рипа: (image + .cue)
Битрейт аудио: lossless
Продолжительность: 01:10:19
Источник (релизер): СПАМ
Наличие сканов в содержимом раздачи: да
Треклист:
01 - Kisten Heiberg - Ja und nein (1939)
02 - Victor de Kowa - Vielleicht warґs nur ein Traum (1934)
03 - Ilse Werner - Mit der letzten Strassenbahn (1943)
04 - Grete Weiser - Die Hauptsache ist... (1938)
05 - Willi Forst - Gnadige Frau, wo warґn Sie gestern (1939)
06 - Vera Bergmann und Rudi Godden - Kleine Mama (1938)
07 - Fita Benkhoff - Ich habe eine starke und eine schwache Seite (1939)
08 - Zarah Leander - Lang istґs her (1938)
09 - Oskar Karlweis - Abgesehґn davon (1936)
10 - Baby Gray und Robert Dorsay - Das Schonste an der Liebe ist die Heirat (1937)
11 - Peter Igelhoff - Mit einer kleinen Melodie im Herzen (1939)
12 - Gusti Huber und Max Hansen - Mit Klavierbegleitung (1937)
13 - Willi Forst - Immer wenn es regnet (1942)
14 - Elena Lauri - Ungekusst sollst Du nicht schlafen gehґn (1936)
15 - Tatjana Sais - Fur ein paar schwache Stunden (1937)
16 - Kate Kuhl - Ja, ihr Manner (1939)
17 - Elena Lauri - Musik hat mich verliebt gemacht (1937)
18 - Kirsten Heiberg - Schenk mir 24 Stunden Liebe (1939)
19 - Hilde Korber - Die Moral der Manner (1937)
20 - Manfred Zalden - Du stehst nicht im Adressbuch (1939)
21 - Hilde Hildebrand - Nachts ging das Telefon (1937)
22 - Brigitte Horney - Warum liebt man so die Liebe (1935)
23 - Greta Keller - Kleine Melodie, dich vergess ich nie (1936)
24 - Zarah Leander - Sag mir nicht 'adieu' (1938)
Код:
Exact Audio Copy V0.99 prebeta 4 from 23. January 2008
Отчёт EAC об извлечении, выполненном 31. августа 2011, 11:54
Various / Deutsche Chansons auf Schellack- Originalaufnahmen von 1934-1943
Дисковод: _NEC    DVD_RW ND-4550A   Adapter: 3  ID: 0
Режим чтения                 : Достоверность
Использование точного потока : Да
Отключение кэша аудио        : Да
Использование указателей C2  : Нет
Коррекция смещения при чтении                     : 48
Способность читать области Lead-in и Lead-out     : Нет
Заполнение пропущенных сэмплов тишиной            : Да
Удаление блоков с тишиной в начале и конце        : Нет
При вычислениях CRC использовались нулевые сэмплы : Да
Интерфейс                                         : Установленный внешний ASPI-интерфейс
Выходной формат          : Пользовательский кодировщик
Выбранный битрейт        : 1024 kBit/s
Качество                 : Высокий
Добавление ID3-тэга      : Нет
Утилита сжатия           : C:\Program Files\Exact Audio Copy\FLAC\FLAC.EXE
Дополнительные параметры : -6 -V -T "ARTIST=%a" -T "TITLE=%t" -T "ALBUM=%g" -T "DATE=%y" -T "TRACKNUMBER=%n" -T "GENRE=%m" -T "COMMENT=%e" %s -o %d
TOC извлечённого CD
     Трек |   Старт  | Длительность | Начальный сектор | Конечный сектор
    ---------------------------------------------------------------------
       1  |  0:00.00 |    3:00.47   |           0      |      13546
       2  |  3:00.47 |    3:12.30   |       13547      |      27976
       3  |  6:13.02 |    2:39.65   |       27977      |      39966
       4  |  8:52.67 |    2:58.00   |       39967      |      53316
       5  | 11:50.67 |    3:19.60   |       53317      |      68301
       6  | 15:10.52 |    3:00.38   |       68302      |      81839
       7  | 18:11.15 |    2:02.37   |       81840      |      91026
       8  | 20:13.52 |    2:40.63   |       91027      |     103089
       9  | 22:54.40 |    3:09.17   |      103090      |     117281
      10  | 26:03.57 |    2:41.55   |      117282      |     129411
      11  | 28:45.37 |    3:09.13   |      129412      |     143599
      12  | 31:54.50 |    2:33.02   |      143600      |     155076
      13  | 34:27.52 |    3:14.20   |      155077      |     169646
      14  | 37:41.72 |    3:00.40   |      169647      |     183186
      15  | 40:42.37 |    3:06.53   |      183187      |     197189
      16  | 43:49.15 |    3:08.67   |      197190      |     211356
      17  | 46:58.07 |    3:02.58   |      211357      |     225064
      18  | 50:00.65 |    3:01.17   |      225065      |     238656
      19  | 53:02.07 |    2:30.33   |      238657      |     249939
      20  | 55:32.40 |    2:58.00   |      249940      |     263289
      21  | 58:30.40 |    3:14.32   |      263290      |     277871
      22  | 61:44.72 |    2:52.15   |      277872      |     290786
      23  | 64:37.12 |    2:56.53   |      290787      |     304039
      24  | 67:33.65 |    2:45.22   |      304040      |     316436
Характеристики диапазона извлечения и сообщения об ошибках
Выбранный диапазон
     Имя файла C:\Documents and Settings\Admin\Рабочий стол\Ja und Nein - Deutsche Chansons auf Schellack\Various - Deutsche Chansons auf Schellack.wav
     Пиковый уровень 99.9 %
     Качество диапазона 99.9 %
     CRC теста 9DEAF39A
     CRC копии 9DEAF39A
     Копирование... OK
Ошибок не произошло
AccurateRip: сводка
Трек  1  нет в базе данных
Трек  2  нет в базе данных
Трек  3  нет в базе данных
Трек  4  нет в базе данных
Трек  5  нет в базе данных
Трек  6  нет в базе данных
Трек  7  нет в базе данных
Трек  8  нет в базе данных
Трек  9  нет в базе данных
Трек 10  нет в базе данных
Трек 11  нет в базе данных
Трек 12  нет в базе данных
Трек 13  нет в базе данных
Трек 14  нет в базе данных
Трек 15  нет в базе данных
Трек 16  нет в базе данных
Трек 17  нет в базе данных
Трек 18  нет в базе данных
Трек 19  нет в базе данных
Трек 20  нет в базе данных
Трек 21  нет в базе данных
Трек 22  нет в базе данных
Трек 23  нет в базе данных
Трек 24  нет в базе данных
Ни одного трека нет в базе AccurateRip
Конец отчёта



VA - Ja und Nein... - Deutsche Chansons auf Schellack (1934-1943) - 2003, MP3, 320 kbps
Правила, инструкции, FAQ!!!
Торрент  Добавлен [01 янв 2020, 22:47] Скачать торрент Магнет ссылка
Скачать торрент
[ Размер 18.39 КБ / Просмотров 1 ]

Статус
Проверен 
 
Размер  223.75 МБ
Приватный: Нет (DHT включён)
.torrent скачан  0
 


     Отправить личное сообщение
   
Страница 1 из 1
Показать сообщения за:  Поле сортировки  
Начать новую тему Ответить на тему


Сейчас этот форум просматривают: нет зарегистрированных пользователей и гости: 0


Вы не можете начинать темы
Вы не можете отвечать на сообщения
Вы не можете редактировать свои сообщения
Вы не можете удалять свои сообщения
Вы не можете добавлять вложения

Перейти:  
cron