Начать новую тему Ответить на тему
Статистика раздачи
Размер: 479.47 МБ | Добавлен: 01 янв 2020, 22:57 | Скачали: 0
Сидеров: 0  [0 байт/сек]    Личеров: 0  [0 байт/сек]
Пред. тема | След. тема 

Автор
Сообщение

СообщениеДобавлено: 01 янв 2020, 22:57 

Ответить с цитатой 

Salvatore Adamo La Vie Comme Elle Passe
Жанр: Chanson
Год выпуска диска: 1996
Производитель диска: France
Аудио кодек: FLAC
Тип рипа: image+.cue
Продолжительность: 65:33
Трэклист:
1 Jours De Lumiere 5:04
2 La Vie Comme Elle Passe 3:26
3 Un Sourire 3:22
4 Sans Domicile 4:18
5 Il Faunt De Tout Pour Faire Un Monde 5:45
6 Fumer Blonde 4:41
7 Et De L'argent 4:19
8 De L'autre Cote Du Pont 5:44
9 L' Age Des Regrets 4:49
10 Le Silence 5:36
11 Que Sont Mes Amis Devenus? 5:03
12 Ramene-Moi 3:44
13 Lola 5:13
14 J'plaisantais 5:14
15 Le Cerf-Volant 4:13
16 Un Homme 5:02
Доп. информация:
Exact Audio Copy V0.99 prebeta 4 from 23. January 2008
Отчёт EAC об извлечении, выполненном 14. февраля 2009, 4:54
Adamo / La vie comme elle passe
Дисковод: LITE-ON DVDRW LH-20A1P Adapter: 2 ID: 0
Режим чтения : Достоверность
Использование точного потока : Да
Отключение кэша аудио : Да
Использование указателей C2 : Нет
Коррекция смещения при чтении : 6
Способность читать области Lead-in и Lead-out : Нет
Заполнение пропущенных сэмплов тишиной : Да
Удаление блоков с тишиной в начале и конце : Нет
При вычислениях CRC использовались нулевые сэмплы : Да
Интерфейс : Встроенный Win32-интерфейс для Win NT/2000
Выходной формат : Внутренние WAV-операции
Формат сэмплов : 44.100 Гц; 16 бит; стерео
TOC извлечённого CD
Трек | Старт | Длительность | Начальный сектор | Конечный сектор
---------------------------------------------------------------------
1 | 0:00.32 | 5:04.53 | 32 | 22884
2 | 5:05.10 | 3:26.35 | 22885 | 38369
3 | 8:31.45 | 3:22.42 | 38370 | 53561
4 | 11:54.12 | 4:18.43 | 53562 | 72954
5 | 16:12.55 | 5:45.30 | 72955 | 98859
6 | 21:58.10 | 4:41.30 | 98860 | 119964
7 | 26:39.40 | 4:19.72 | 119965 | 139461
8 | 30:59.37 | 5:44.70 | 139462 | 165331
9 | 36:44.32 | 4:49.45 | 165332 | 187051
10 | 41:34.02 | 5:36.65 | 187052 | 212316
11 | 47:10.67 | 5:03.68 | 212317 | 235109
12 | 52:14.60 | 3:44.57 | 235110 | 251966
13 | 55:59.42 | 5:13.05 | 251967 | 275446
14 | 61:12.47 | 5:14.13 | 275447 | 299009
15 | 66:26.60 | 4:13.40 | 299010 | 318024
16 | 70:40.25 | 5:02.30 | 318025 | 340704
Характеристики диапазона извлечения и сообщения об ошибках
Выбранный диапазон
Имя файла D:\Мои документы\Моя музыка\Adamo - La vie comme elle passe.wav
Пиковый уровень 97.2 %
Качество диапазона 99.9 %
CRC копии AE879D66
Копирование... OK
Ошибок не произошло
Конец отчёта
Правила, инструкции, FAQ!!!
Торрент  Добавлен [01 янв 2020, 22:57] Скачать торрент Магнет ссылка
Скачать торрент
[ Размер 19.35 КБ / Просмотров 3 ]

Статус
Проверен 
 
Размер  479.47 МБ
Приватный: Нет (DHT включён)
.torrent скачан  0
 


     Отправить личное сообщение
   
Страница 1 из 1
Показать сообщения за:  Поле сортировки  
Начать новую тему Ответить на тему


Сейчас этот форум просматривают: нет зарегистрированных пользователей и гости: 0


Вы не можете начинать темы
Вы не можете отвечать на сообщения
Вы не можете редактировать свои сообщения
Вы не можете удалять свои сообщения
Вы не можете добавлять вложения

Перейти:  
cron