Начать новую тему Ответить на тему
Статистика раздачи
Размер: 293.23 МБ | Добавлен: 01 янв 2020, 23:04 | Скачали: 0
Сидеров: 0  [0 байт/сек]    Личеров: 0  [0 байт/сек]
Пред. тема | След. тема 

Автор
Сообщение

СообщениеДобавлено: 01 янв 2020, 23:04 

Ответить с цитатой 

Salvatore Adamo Sur La Route Des Etoiles
Жанр: Chanson
Год выпуска диска: 1989
Производитель диска: France
Аудио кодек: FLAC
Тип рипа: image+.cue
Продолжительность: 47 min
Трэклист:
1. Sur la route des etoiles 4:20
2. Si tu t'en vas 3:45
3. Mathilda 3:30
4. Retouches 3:30
5. J'm'aime plus 3:30
6. Quand le printemps revient 3:30
7. Quand la liberte s'envole -(Basta!) 4:25
8. J'suis toujors la 4:15
9. Sacre vieux rock and roll 4:30
10.Drole d'amour 4:00
11.Des nouvelles de l'amour 4:00
12.Le mot "amour" 3:42
Доп. информация:
Код:
Exact Audio Copy V0.99 prebeta 4 from 23. January 2008
Отчёт EAC об извлечении, выполненном 15. февраля 2009, 20:05
Unknown Artist / Unknown Title
Дисковод: LITE-ON DVDRW LH-20A1P   Adapter: 2  ID: 0
Режим чтения                 : Достоверность
Использование точного потока : Да
Отключение кэша аудио        : Да
Использование указателей C2  : Нет
Коррекция смещения при чтении                     : 6
Способность читать области Lead-in и Lead-out     : Нет
Заполнение пропущенных сэмплов тишиной            : Да
Удаление блоков с тишиной в начале и конце        : Нет
При вычислениях CRC использовались нулевые сэмплы : Да
Интерфейс                                         : Встроенный Win32-интерфейс для Win NT/2000
Выходной формат : Внутренние WAV-операции
Формат сэмплов  : 44.100 Гц; 16 бит; стерео
TOC извлечённого CD
     Трек |   Старт  | Длительность | Начальный сектор | Конечный сектор
    ---------------------------------------------------------------------
       1  |  0:00.00 |    4:37.11   |           0      |      20785
       2  |  4:37.11 |    3:58.08   |       20786      |      38643
       3  |  8:35.19 |    3:36.37   |       38644      |      54880
       4  | 12:11.56 |    3:42.72   |       54881      |      71602
       5  | 15:54.53 |    3:44.43   |       71603      |      88445
       6  | 19:39.21 |    3:47.41   |       88446      |     105511
       7  | 23:26.62 |    4:33.29   |      105512      |     126015
       8  | 28:00.16 |    4:38.42   |      126016      |     146907
       9  | 32:38.58 |    4:46.64   |      146908      |     168421
      10  | 37:25.47 |    4:15.05   |      168422      |     187551
      11  | 41:40.52 |    4:10.26   |      187552      |     206327
      12  | 45:51.03 |    3:45.22   |      206328      |     223224
Характеристики диапазона извлечения и сообщения об ошибках
Выбранный диапазон
     Имя файла D:\Мои документы\Моя музыка\Sur la route des etoiles.wav
     Пиковый уровень 90.8 %
     Качество диапазона 100.0 %
     CRC копии 5C264D0A
     Копирование... OK
Ошибок не произошло
Конец отчёта
REM DISCID A40BA00C
REM COMMENT "ExactAudioCopy v0.99pb4"
PERFORMER "Salvatore Adamo"
TITLE "Sur la route des etoiles"
FILE "Sur la route des etoiles.flac" WAVE
TRACK 01 AUDIO
TITLE "Sur la route des etoiles"
PERFORMER "Salvatore Adamo"
INDEX 01 00:00:00
TRACK 02 AUDIO
TITLE "Si tu t'en vas"
PERFORMER "Salvatore Adamo"
INDEX 01 04:37:11
TRACK 03 AUDIO
TITLE "Mathilda"
PERFORMER "Salvatore Adamo"
INDEX 01 08:35:19
TRACK 04 AUDIO
TITLE "Retouches"
PERFORMER "Salvatore Adamo"
INDEX 01 12:11:56
TRACK 05 AUDIO
TITLE "J'm'aime plus"
PERFORMER "Salvatore Adamo"
INDEX 01 15:54:53
TRACK 06 AUDIO
TITLE "Quand le printemps revient"
PERFORMER "Salvatore Adamo"
INDEX 01 19:39:21
TRACK 07 AUDIO
TITLE "Quand la liberte s'envole -(Basta!)"
PERFORMER "Salvatore Adamo"
INDEX 01 23:26:62
TRACK 08 AUDIO
TITLE "J'suis toujors la"
PERFORMER "Salvatore Adamo"
INDEX 01 28:00:16
TRACK 09 AUDIO
TITLE "Sacre vieux rock and roll"
PERFORMER "Salvatore Adamo"
INDEX 01 32:38:58
TRACK 10 AUDIO
TITLE "Drole d'amour"
PERFORMER "Salvatore Adamo"
INDEX 01 37:25:47
TRACK 11 AUDIO
TITLE "Des nouvelles de l'amour"
PERFORMER "Salvatore Adamo"
INDEX 01 41:40:52
TRACK 12 AUDIO
TITLE "Le mot amour"
PERFORMER "Salvatore Adamo"
INDEX 01 45:51:03
Правила, инструкции, FAQ!!!
Торрент  Добавлен [01 янв 2020, 23:04] Скачать торрент Магнет ссылка
Скачать торрент
[ Размер 12.07 КБ / Просмотров 2 ]

Статус
Проверен 
 
Размер  293.23 МБ
Приватный: Нет (DHT включён)
.torrent скачан  0
 


     Отправить личное сообщение
   
Страница 1 из 1
Показать сообщения за:  Поле сортировки  
Начать новую тему Ответить на тему


Сейчас этот форум просматривают: нет зарегистрированных пользователей и гости: 0


Вы не можете начинать темы
Вы не можете отвечать на сообщения
Вы не можете редактировать свои сообщения
Вы не можете удалять свои сообщения
Вы не можете добавлять вложения

Перейти:  
cron