Начать новую тему Ответить на тему
Статистика раздачи
Размер: 396.66 МБ | Добавлен: 01 янв 2020, 22:57 | Скачали: 1
Сидеров: 1  [0 байт/сек]    Личеров: 1  [0 байт/сек]
Пред. тема | След. тема 

Автор
Сообщение

СообщениеДобавлено: 01 янв 2020, 22:57 

Ответить с цитатой 

Salvatore Adamo Regards
Жанр: Chanson
Год выпуска диска: 1998
Производитель диска: France
Аудио кодек: FLAC
Тип рипа: image+.cue
Продолжительность: 64:38
Трэклист:
1 Dans les mille ans qui viennent 4:56
2 Les heures bleues 4:33
3 Je crois aux anges 4:26
4 Elle disait tout l'temps je t'aime 3:50
5 Anima 4:54
6 Salima dans le tramway 3:46
7 Laissez rever les enfants 4:16
8 Mon оle а moi 3:56
9 Ce sera toi 4:17
10 Quelle mouche t'a piquйe 4:36
11 Le village 4:15
12 Dans le regard d'une femme 4:46
13 Ils s'aimaient 5:08
14 Ceux qui s'aiment 6:54
Доп. информация:
Exact Audio Copy V0.99 prebeta 4 from 23. January 2008
Отчёт EAC об извлечении, выполненном 14. февраля 2009, 2:20
Adamo / Regards
Дисковод: LITE-ON DVDRW LH-20A1P Adapter: 2 ID: 0
Режим чтения : Достоверность
Использование точного потока : Да
Отключение кэша аудио : Да
Использование указателей C2 : Нет
Коррекция смещения при чтении : 6
Способность читать области Lead-in и Lead-out : Нет
Заполнение пропущенных сэмплов тишиной : Да
Удаление блоков с тишиной в начале и конце : Нет
При вычислениях CRC использовались нулевые сэмплы : Да
Интерфейс : Встроенный Win32-интерфейс для Win NT/2000
Выходной формат : Внутренние WAV-операции
Формат сэмплов : 44.100 Гц; 16 бит; стерео
TOC извлечённого CD
Трек | Старт | Длительность | Начальный сектор | Конечный сектор
---------------------------------------------------------------------
1 | 0:00.00 | 5:18.05 | 0 | 23854
2 | 5:18.05 | 4:31.10 | 23855 | 44189
3 | 9:49.15 | 4:24.57 | 44190 | 64046
4 | 14:13.72 | 3:48.19 | 64047 | 81165
5 | 18:02.16 | 4:54.47 | 81166 | 103262
6 | 22:56.63 | 3:43.73 | 103263 | 120060
7 | 26:40.61 | 4:14.03 | 120061 | 139113
8 | 30:54.64 | 3:54.49 | 139114 | 156712
9 | 34:49.38 | 4:15.74 | 156713 | 175911
10 | 39:05.37 | 4:34.56 | 175912 | 196517
11 | 43:40.18 | 4:13.70 | 196518 | 215562
12 | 47:54.13 | 4:45.61 | 215563 | 236998
13 | 52:39.74 | 5:05.11 | 236999 | 259884
14 | 57:45.10 | 6:59.67 | 259885 | 291376
Характеристики диапазона извлечения и сообщения об ошибках
Выбранный диапазон
Имя файла D:\Мои документы\Моя музыка\Adamo - Regards.wav
Пиковый уровень 99.8 %
Качество диапазона 100.0 %
CRC копии F4A66765
Копирование... OK
Ошибок не произошло
Конец отчёта
Правила, инструкции, FAQ!!!
Торрент  Добавлен [01 янв 2020, 22:57] Скачать торрент Магнет ссылка
Скачать торрент
[ Размер 16.07 КБ / Просмотров 14 ]

Статус
Проверен 
 
Размер  396.66 МБ
Приватный: Нет (DHT включён)
.torrent скачан  1
 


     Отправить личное сообщение
   
Страница 1 из 1
Показать сообщения за:  Поле сортировки  
Начать новую тему Ответить на тему


Сейчас этот форум просматривают: нет зарегистрированных пользователей и гости: 0


Вы не можете начинать темы
Вы не можете отвечать на сообщения
Вы не можете редактировать свои сообщения
Вы не можете удалять свои сообщения
Вы не можете добавлять вложения

Перейти:  
cron