Начать новую тему Ответить на тему
Статистика раздачи
Размер: 393.85 МБ | Добавлен: 01 янв 2020, 23:08 | Скачали: 0
Сидеров: 0  [0 байт/сек]    Личеров: 0  [0 байт/сек]
Пред. тема | След. тема 

Автор
Сообщение

СообщениеДобавлено: 01 янв 2020, 23:08 

Ответить с цитатой 

Salvatore Adamo - Les Indispensables De
Жанр: Chanson
Год выпуска диска: 2002
Производитель диска: France
Аудио кодек: FLAC
Тип рипа: image+.cue
Битрейт аудио: lossless
Продолжительность: 01:06
Трэклист:
01. Tombe la neige (2:54)
02. Je danse (3:52)
03. Mes mains sur tes hanches (3:13)
04. Inch'Hallah (3:46)
05. Et on chantait (3:59)
06. D'un amour a l'autre (3:13)
07. Si tu etais (4:22)
08. Voyage jusqu'a toi (4:07)
09. J'ai trouve un ete (3:55)
10. Le barbu sans barde (2:38)
11. Et si elle vous demande (3:54)
12. Elle (3:29)
13. En bandouliere (3:21)
14. J'aime (2:39)
15. Fichue samba (4:23)
16. La nuit (3:33)
17. Plus loin (4:06)
18. La femme que j'aime (4:44)
Доп. информация: Compilation (c) 1992 Sony Music Entertainment S.A. - 2002 Sony Music Entertainment (France)S.A.
Код:
Exact Audio Copy V0.99 prebeta 5 from 4. May 2009
Отчёт EAC об извлечении, выполненном 18. июля 2009, 21:21
Salvatore Adamo / Les Indispensables De
Дисковод: PLEXTOR DVDR   PX-810SA   Adapter: 0  ID: 1
Режим чтения                 : Достоверность
Использование точного потока : Да
Отключение кэша аудио        : Да
Использование указателей C2  : Нет
Коррекция смещения при чтении                     : 48
Способность читать области Lead-in и Lead-out     : Нет
Заполнение пропущенных сэмплов тишиной            : Да
Удаление блоков с тишиной в начале и конце        : Нет
При вычислениях CRC использовались нулевые сэмплы : Да
Интерфейс                                         : Встроенный Win32-интерфейс для Win NT/2000
Выходной формат : Внутренние WAV-операции
Формат сэмплов  : 44.100 Гц; 16 бит; стерео
TOC извлечённого CD
     Трек |   Старт  | Длительность | Начальный сектор | Конечный сектор
    ---------------------------------------------------------------------
       1  |  0:00.32 |    2:53.25   |          32      |      13031
       2  |  2:53.57 |    3:54.25   |       13032      |      30606
       3  |  6:48.07 |    3:12.55   |       30607      |      45061
       4  | 10:00.62 |    3:46.35   |       45062      |      62046
       5  | 13:47.22 |    3:59.23   |       62047      |      79994
       6  | 17:46.45 |    3:13.40   |       79995      |      94509
       7  | 21:00.10 |    4:24.17   |       94510      |     114326
       8  | 25:24.27 |    4:09.45   |      114327      |     133046
       9  | 29:33.72 |    3:57.38   |      133047      |     150859
      10  | 33:31.35 |    2:37.27   |      150860      |     162661
      11  | 36:08.62 |    3:56.15   |      162662      |     180376
      12  | 40:05.02 |    3:29.15   |      180377      |     196066
      13  | 43:34.17 |    3:23.43   |      196067      |     211334
      14  | 46:57.60 |    2:41.50   |      211335      |     223459
      15  | 49:39.35 |    4:22.50   |      223460      |     243159
      16  | 54:02.10 |    3:32.42   |      243160      |     259101
      17  | 57:34.52 |    4:06.20   |      259102      |     277571
      18  | 61:40.72 |    4:44.30   |      277572      |     298901
Характеристики диапазона извлечения и сообщения об ошибках
Выбранный диапазон
     Имя файла D:\MP3\RIPED!!!\Salvatore Adamo\Salvatore Adamo - Les Indispensables De.wav
     Пиковый уровень 96.0 %
     Качество диапазона 100.0 %
     CRC копии 108BB693
     Копирование... OK
Ошибок не произошло
AccurateRip: сводка
Трек  1  точность не определена (достоверность 1)  [9FE133E1], AccurateRip вернул [22EB5AF7]
Трек  2  точность не определена (достоверность 1)  [AD032449], AccurateRip вернул [D4FEE5AE]
Трек  3  точность не определена (достоверность 1)  [5305BA71], AccurateRip вернул [5A5A14DC]
Трек  4  точность не определена (достоверность 1)  [DD6A293A], AccurateRip вернул [34E7AE98]
Трек  5  точность не определена (достоверность 1)  [8EAB71B8], AccurateRip вернул [963DF137]
Трек  6  точность не определена (достоверность 1)  [D7428F80], AccurateRip вернул [B6808714]
Трек  7  точность не определена (достоверность 1)  [16D5F321], AccurateRip вернул [AB6562D7]
Трек  8  точность не определена (достоверность 1)  [78DA5F77], AccurateRip вернул [DBDB9C4F]
Трек  9  точность не определена (достоверность 1)  [E8175CBB], AccurateRip вернул [14E9CC36]
Трек 10  точность не определена (достоверность 1)  [724C14C4], AccurateRip вернул [161838C4]
Трек 11  точность не определена (достоверность 1)  [BB013CF8], AccurateRip вернул [D4504C23]
Трек 12  точность не определена (достоверность 1)  [76617E3E], AccurateRip вернул [FB205661]
Трек 13  точность не определена (достоверность 1)  [C3470A87], AccurateRip вернул [C0D4505D]
Трек 14  точность не определена (достоверность 1)  [E1336189], AccurateRip вернул [961328EF]
Трек 15  точность не определена (достоверность 1)  [4F619A9D], AccurateRip вернул [4F2C480C]
Трек 16  точность не определена (достоверность 1)  [8588B102], AccurateRip вернул [4EA16223]
Трек 17  точность не определена (достоверность 1)  [BB34A7AE], AccurateRip вернул [05DD1F17]
Трек 18  точность не определена (достоверность 1)  [BCC3263F], AccurateRip вернул [812D4830]
Ни один трек не прошёл проверки на точность
В вашей базе может быть иной вариант штамповки диска
Конец отчёта
Правила, инструкции, FAQ!!!
Торрент  Добавлен [01 янв 2020, 23:08] Скачать торрент Магнет ссылка
Скачать торрент
[ Размер 16.33 КБ / Просмотров 7 ]

Статус
Проверен 
 
Размер  393.85 МБ
Приватный: Нет (DHT включён)
.torrent скачан  0
 


     Отправить личное сообщение
   
Страница 1 из 1
Показать сообщения за:  Поле сортировки  
Начать новую тему Ответить на тему


Сейчас этот форум просматривают: нет зарегистрированных пользователей и гости: 0


Вы не можете начинать темы
Вы не можете отвечать на сообщения
Вы не можете редактировать свои сообщения
Вы не можете удалять свои сообщения
Вы не можете добавлять вложения

Перейти:  
cron