Начать новую тему Ответить на тему
Статистика раздачи
Размер: 270.93 МБ | Добавлен: 01 янв 2020, 23:08 | Скачали: 0
Сидеров: 0  [0 байт/сек]    Личеров: 0  [0 байт/сек]
Пред. тема | След. тема 

Автор
Сообщение

СообщениеДобавлено: 01 янв 2020, 23:08 

Ответить с цитатой 

Salvatore Adamo Felicita, dove sei
Жанр: Chanson
Год выпуска диска: 1982
Производитель диска: Italy
Аудио кодек: FLAC
Тип рипа: image+.cue
Продолжительность: 48:52
Трэклист:
1. Felicita,dove sei 3:45
2. Cose da niente 4:02
3. Mi hai rubato i colori 3:32
4. La ricompensa 3:50
5. I tuoi occhi 3:25
6. Solitudine 4:20
7. E cantavamo 3:40
8. Incomincio ad amarti 4:05
9. Non e' soltanto sole 4:15
10.Puoi dirmi chi 4:00
11.Se tu fossi 4:20
12.Non penso piu' a te 4:08
Доп. информация:
Exact Audio Copy V0.99 prebeta 4 from 23. January 2008
Отчёт EAC об извлечении, выполненном 21. февраля 2009, 1:42
Salvatore Adamo / Felicita,dove sei
Дисковод: LITE-ON DVDRW LH-20A1P Adapter: 2 ID: 0
Режим чтения : Достоверность
Использование точного потока : Да
Отключение кэша аудио : Да
Использование указателей C2 : Нет
Коррекция смещения при чтении : 6
Способность читать области Lead-in и Lead-out : Нет
Заполнение пропущенных сэмплов тишиной : Да
Удаление блоков с тишиной в начале и конце : Нет
При вычислениях CRC использовались нулевые сэмплы : Да
Интерфейс : Встроенный Win32-интерфейс для Win NT/2000
Выходной формат : Внутренние WAV-операции
Формат сэмплов : 44.100 Гц; 16 бит; стерео
TOC извлечённого CD
Трек | Старт | Длительность | Начальный сектор | Конечный сектор
---------------------------------------------------------------------
1 | 0:00.00 | 3:37.01 | 0 | 16275
2 | 3:37.01 | 4:01.66 | 16276 | 34416
3 | 7:38.67 | 3:32.47 | 34417 | 50363
4 | 11:11.39 | 3:52.03 | 50364 | 67766
5 | 15:03.42 | 3:35.27 | 67767 | 83918
6 | 18:38.69 | 4:15.31 | 83919 | 103074
7 | 22:54.25 | 3:42.43 | 103075 | 119767
8 | 26:36.68 | 4:04.43 | 119768 | 138110
9 | 30:41.36 | 4:14.24 | 138111 | 157184
10 | 34:55.60 | 3:59.58 | 157185 | 175167
11 | 38:55.43 | 4:22.49 | 175168 | 194866
12 | 43:18.17 | 4:06.39 | 194867 | 213355
Характеристики диапазона извлечения и сообщения об ошибках
Выбранный диапазон
Имя файла D:\Мои документы\Моя музыка\Salvatore Adamo - Felicita,dove sei.wav
Пиковый уровень 99.5 %
Качество диапазона 100.0 %
CRC копии 04B91354
Копирование... OK
Ошибок не произошло
Конец отчёта
Правила, инструкции, FAQ!!!
Торрент  Добавлен [01 янв 2020, 23:08] Скачать торрент Магнет ссылка
Скачать торрент
[ Размер 11.21 КБ / Просмотров 4 ]

Статус
Проверен 
 
Размер  270.93 МБ
Приватный: Нет (DHT включён)
.torrent скачан  0
 


     Отправить личное сообщение
   
Страница 1 из 1
Показать сообщения за:  Поле сортировки  
Начать новую тему Ответить на тему


Сейчас этот форум просматривают: нет зарегистрированных пользователей и гости: 0


Вы не можете начинать темы
Вы не можете отвечать на сообщения
Вы не можете редактировать свои сообщения
Вы не можете удалять свои сообщения
Вы не можете добавлять вложения

Перейти:  
cron