Начать новую тему Ответить на тему
Статистика раздачи
Размер: 307.96 МБ | Добавлен: 01 янв 2020, 22:57 | Скачали: 0
Сидеров: 1  [0 байт/сек]    Личеров: 0  [0 байт/сек]
Пред. тема | След. тема 

Автор
Сообщение

СообщениеДобавлено: 01 янв 2020, 22:57 

Ответить с цитатой 

Salvatore Adamo Autre chose
Жанр: Chanson
Год выпуска диска: 1984
Производитель диска: France
Аудио кодек: FLAC
Тип рипа: image+.cue
Продолжительность: 60:10
Трэклист:
1. Autre chose
2. De quoi j'me mele
3. Je t'aime encore
4. Cette chanson
5. A notre amour
6. Tous sour la meme bateau
7. Laissez-passer grand mere
8. Manuel
9. Il pleut dans ma chanson
10.Des petits riens
11.Cara Italia
12.Imagination
13.Pas si vite, Margarite
14.Amoureux
15.Si belle, si naturelle
Доп. информация:
Exact Audio Copy V0.99 prebeta 4 from 23. January 2008
Отчёт EAC об извлечении, выполненном 15. февраля 2009, 23:27
Unknown Artist / Unknown Title
Дисковод: LITE-ON DVDRW LH-20A1P Adapter: 2 ID: 0
Режим чтения : Достоверность
Использование точного потока : Да
Отключение кэша аудио : Да
Использование указателей C2 : Нет
Коррекция смещения при чтении : 6
Способность читать области Lead-in и Lead-out : Нет
Заполнение пропущенных сэмплов тишиной : Да
Удаление блоков с тишиной в начале и конце : Нет
При вычислениях CRC использовались нулевые сэмплы : Да
Интерфейс : Встроенный Win32-интерфейс для Win NT/2000
Выходной формат : Внутренние WAV-операции
Формат сэмплов : 44.100 Гц; 16 бит; стерео
TOC извлечённого CD
Трек | Старт | Длительность | Начальный сектор | Конечный сектор
---------------------------------------------------------------------
1 | 0:00.00 | 4:15.59 | 0 | 19183
2 | 4:15.59 | 3:58.07 | 19184 | 37040
3 | 8:13.66 | 3:42.18 | 37041 | 53708
4 | 11:56.09 | 4:15.57 | 53709 | 72890
5 | 16:11.66 | 3:28.42 | 72891 | 88532
6 | 19:40.33 | 4:00.15 | 88533 | 106547
7 | 23:40.48 | 3:46.38 | 106548 | 123535
8 | 27:27.11 | 7:03.61 | 123536 | 155321
9 | 34:30.72 | 3:17.41 | 155322 | 170137
10 | 37:48.38 | 3:53.35 | 170138 | 187647
11 | 41:41.73 | 4:13.45 | 187648 | 206667
12 | 45:55.43 | 3:58.02 | 206668 | 224519
13 | 49:53.45 | 3:56.11 | 224520 | 242230
14 | 53:49.56 | 4:08.16 | 242231 | 260846
15 | 57:57.72 | 3:34.72 | 260847 | 276968
Характеристики диапазона извлечения и сообщения об ошибках
Выбранный диапазон
Имя файла D:\Мои документы\Моя музыка\Adamo - Autre chose.wav
Пиковый уровень 67.3 %
Качество диапазона 100.0 %
CRC копии 6E499F95
Копирование... OK
Ошибок не произошло
Конец отчёта
Правила, инструкции, FAQ!!!
Торрент  Добавлен [01 янв 2020, 22:57] Скачать торрент Магнет ссылка
Скачать торрент
[ Размер 12.61 КБ / Просмотров 3 ]

Статус
Проверен 
 
Размер  307.96 МБ
Приватный: Нет (DHT включён)
.torrent скачан  0
 


     Отправить личное сообщение
   
Страница 1 из 1
Показать сообщения за:  Поле сортировки  
Начать новую тему Ответить на тему


Сейчас этот форум просматривают: нет зарегистрированных пользователей и гости: 0


Вы не можете начинать темы
Вы не можете отвечать на сообщения
Вы не можете редактировать свои сообщения
Вы не можете удалять свои сообщения
Вы не можете добавлять вложения

Перейти:  
cron