Начать новую тему Ответить на тему
Статистика раздачи
Размер: 223.17 МБ | Добавлен: 01 янв 2020, 22:48 | Скачали: 0
Сидеров: 0  [0 байт/сек]    Личеров: 0  [0 байт/сек]
Пред. тема | След. тема 

Автор
Сообщение

СообщениеДобавлено: 01 янв 2020, 22:48 

Ответить с цитатой 

Marina Rossell / Marina Rossell canta Moustaki
Жанр: Chanson, Roots
Носитель: CD
Страна-производитель диска (релиза): Spain
Год издания: 2011
Издатель (лейбл): World Village
Номер по каталогу: WV 498051
Страна исполнителя (группы): Spain, Catalunya
Аудиокодек: APE (*.ape)
Тип рипа: image+.cue
Битрейт аудио: lossless
Продолжительность: 41:05
Источник (релизер): TheWarrior
Наличие сканов в содержимом раздачи: да
Треклист:
01. El Metec
02. Ma Llibertat
03. Hi Havia un Jardí
04. El Mar M'Ha Donat
05. Ma Solitud
06. Balla
07. Els Amants S'estimen un Temps
08. En el Mediterrani
09. El Carter
10. Hiroshima
11. Sense Anomenar-la
12. MÃrmara
13. El Metec (II)
Код:
Exact Audio Copy V1.0 beta 3 from 29. August 2011
EAC extraction logfile from 24. February 2012, 8:52
Marina Rossell / Canta Moustaki
Used drive  : HL-DT-STDVD-RAM GH22LS30   Adapter: 0  ID: 1
Read mode               : Secure
Utilize accurate stream : Yes
Defeat audio cache      : Yes
Make use of C2 pointers : No
Read offset correction                      : 102
Overread into Lead-In and Lead-Out          : Yes
Fill up missing offset samples with silence : Yes
Delete leading and trailing silent blocks   : No
Null samples used in CRC calculations       : Yes
Used interface                              : Installed external ASPI interface
Used output format : Internal WAV Routines
Sample format      : 44.100 Hz; 16 Bit; Stereo
TOC of the extracted CD
     Track |   Start  |  Length  | Start sector | End sector
    ---------------------------------------------------------
        1  |  0:00.00 |  2:45.08 |         0    |    12382
        2  |  2:45.08 |  2:44.48 |     12383    |    24730
        3  |  5:29.56 |  3:39.49 |     24731    |    41204
        4  |  9:09.30 |  2:30.42 |     41205    |    52496
        5  | 11:39.72 |  3:01.63 |     52497    |    66134
        6  | 14:41.60 |  3:05.67 |     66135    |    80076
        7  | 17:47.52 |  3:15.22 |     80077    |    94723
        8  | 21:02.74 |  4:14.42 |     94724    |   113815
        9  | 25:17.41 |  4:16.25 |    113816    |   133040
       10  | 29:33.66 |  2:24.54 |    133041    |   143894
       11  | 31:58.45 |  3:08.56 |    143895    |   158050
       12  | 35:07.26 |  3:06.13 |    158051    |   172013
       13  | 38:13.39 |  2:51.66 |    172014    |   184904
Range status and errors
Selected range
     Filename C:\Users\iñaki\Music\Marina Rossell\Marina Rossell - Canta Moustaki.wav
     Peak level 99.9 %
     Extraction speed 2.4 X
     Range quality 99.9 %
     Test CRC 7E9733BD
     Copy CRC 7E9733BD
     Copy OK
No errors occurred
AccurateRip summary
Track  1  not present in database
Track  2  not present in database
Track  3  not present in database
Track  4  not present in database
Track  5  not present in database
Track  6  not present in database
Track  7  not present in database
Track  8  not present in database
Track  9  not present in database
Track 10  not present in database
Track 11  not present in database
Track 12  not present in database
Track 13  not present in database
None of the tracks are present in the AccurateRip database
End of status report
---- CUETools DB Plugin V2.1.3
[CTDB TOCID: tqDXnvqMH32v.cXDF6dm0ZCrldw-] disk not present in database, Submit result: tqDXnvqMH32v.cXDF6dm0ZCrldw- has been uploaded
==== Log checksum 309874489EAA38AB31CD303DD98175A72E2BC4BB9BCA773380AB6455357E52E9 ====
Marina Rossell i Figueras (Gornal, January 17, 1954) is a Spanish singer in Catalan and Spanish.
She's one of the most important singers in modern Catalan song. She has sung traditional and revolutionary classical Catalan songs, habaneras and her own compositions.
Rossell has collaborated with such diverse artists as: Georges Moustaki, Montserrat Caballé, Luis Eduardo Aute, Carlos Cano, Pedro Guerra or the flamenco guitarist Tomatito. She has made numerous tours by Europe, Latin America, northern Africa.
Catalan singer/songwriter Marina Rossell's latest offering in a career that harks back to the mid-'70s is a lovely tribute to the great French songwriter Georges Moustaki, one of Rossell's main influences as well as a beloved friend. Under the musical direction of Eduard Iniesta, Rossell lends her beautiful voice to 12 of Moustaki's most famous songs, such as "Le Métèque," "Ma Solitude," and "Le Facteur" (featuring Roger Mas), all adapted to the Catalan language by Josep Tero, Pelai Ribas, Lluís Llach, and Víctor Bocanegra. To top it all, the album reserves its most enticing surprises for the last two tracks: a previously unreleased duo of Rossell and Moustaki on "Màrmara" and a second version of "Le Métèque" with Paco Ibañez.
Правила, инструкции, FAQ!!!
Торрент  Добавлен [01 янв 2020, 22:48] Скачать торрент Магнет ссылка
Скачать торрент
[ Размер 19.77 КБ / Просмотров 2 ]

Статус
Проверен 
 
Размер  223.17 МБ
Приватный: Нет (DHT включён)
.torrent скачан  0
 


     Отправить личное сообщение
   
Страница 1 из 1
Показать сообщения за:  Поле сортировки  
Начать новую тему Ответить на тему


Сейчас этот форум просматривают: нет зарегистрированных пользователей и гости: 0


Вы не можете начинать темы
Вы не можете отвечать на сообщения
Вы не можете редактировать свои сообщения
Вы не можете удалять свои сообщения
Вы не можете добавлять вложения

Перейти:  
cron