Начать новую тему Ответить на тему
Статистика раздачи
Размер: 206.57 МБ | Добавлен: 01 янв 2020, 22:49 | Скачали: 0
Сидеров: 0  [0 байт/сек]    Личеров: 0  [0 байт/сек]
Пред. тема | След. тема 

Автор
Сообщение

СообщениеДобавлено: 01 янв 2020, 22:49 

Ответить с цитатой 

Sarah Bourdon / Vallée d'argent
Жанр: Chanson, Pop
Носитель: WEB
Год издания: 2017
Издатель (лейбл): Audiogram
Страна исполнителя (группы): Canada
Аудиокодек: FLAC (*.flac)
Тип рипа: tracks
Битрейт аудио: lossless
Продолжительность: 00:40:42
Источник (релизер): qobuz
Наличие сканов в содержимом раздачи: Front
Треклист:
1. Silence
2. Vallée d'argent
3. Healing
4. Gamma
5. Prière silencieuse
6. Toltèque
7. États nuisibles
8. Samara
9. As a Statue of Love
Код:
foobar2000 1.1.10 / Dynamic Range Meter 1.1.1
log date: 2017-09-23 16:01:51
--------------------------------------------------------------------------------
Analyzed: Sarah Bourdon / Vallée d'argent
--------------------------------------------------------------------------------
DR         Peak         RMS     Duration Track
--------------------------------------------------------------------------------
DR10      -2.51 dB   -14.79 dB      1:52 ?-Silence
DR14      -1.46 dB   -17.99 dB      5:24 ?-Vallée d'argent
DR13      -0.29 dB   -15.61 dB      5:47 ?-Healing
DR15      -0.54 dB   -17.76 dB      4:22 ?-Gamma
DR11      -3.77 dB   -18.90 dB      5:56 ?-Prière silencieuse
DR12      -0.55 dB   -14.98 dB      4:15 ?-Toltèque
DR12      -2.06 dB   -15.98 dB      3:18 ?-États nuisibles
DR11      -6.56 dB   -22.56 dB      4:44 ?-Samara
DR10      -2.57 dB   -16.87 dB      5:04 ?-As a Statue of Love
--------------------------------------------------------------------------------
Number of tracks:  9
Official DR value: DR12
Samplerate:        44100 Hz
Channels:          2
Bits per sample:   16
Bitrate:           703 kbps
Codec:             FLAC
================================================================================
Код:
-----------------------
DON'T MODIFY THIS FILE
-----------------------
PERFORMER: auCDtect Task Manager, ver. 1.5.1RC4 build 1.5.1.5
Copyright (c) 2008-2010 y-soft. All rights reserved
[url=http://y-soft.org]http://y-soft.org[/url]
ANALYZER: auCDtect: CD records authenticity detector, version 0.8.2
Copyright (c) 2004 Oleg Berngardt. All rights reserved.
Copyright (c) 2004 Alexander Djourik. All rights reserved.
FILE: 09. As a Statue of Love.flac
  Size: 26807708 Hash: 5539EECD9007E79357F41B0FF6CD549D Accuracy: -m0
  Conclusion: CDDA 100%
  Signature: 55C864056C4301600941F47DAD3120FAB6D7CC4C
FILE: 08. Samara.flac
  Size: 22142073 Hash: 5C0DCE825409EBC022D53B5740690035 Accuracy: -m0
  Conclusion: CDDA 100%
  Signature: C0D52918275AC28F4BC4E6B94073BB8C45D70E1C
FILE: 07. États nuisibles.flac
  Size: 19384497 Hash: CD51C26C11BC9A435FB9F478992DCC8B Accuracy: -m0
  Conclusion: CDDA 100%
  Signature: 141534DAE9194EDB459EA229FDF59BDEF95F2AB3
FILE: 06. Toltèque.flac
  Size: 25185244 Hash: ADB9481A19E260030A1916C6CE23F446 Accuracy: -m0
  Conclusion: CDDA 100%
  Signature: A61A1900AEB1D9C08D93737CEC56C7CCEBE55ED1
FILE: 05. Prière silencieuse.flac
  Size: 29659397 Hash: 1730DE813D44517F4708084886002E79 Accuracy: -m0
  Conclusion: CDDA 100%
  Signature: D29ADB30454AE32B55DDC269A10D98EB5559DA1B
FILE: 04. Gamma.flac
  Size: 22830108 Hash: 248EFBCF793C7A2AF56576AA6F885F66 Accuracy: -m0
  Conclusion: CDDA 100%
  Signature: AB7AD4B650798DB1AF9CCDBDE8C995F7C920880F
FILE: 03. Healing.flac
  Size: 31674940 Hash: 323E0DA6827B5A7A6C66928983E42B13 Accuracy: -m0
  Conclusion: CDDA 100%
  Signature: 1EB95DB84F29E13249CC5255F6CB500603CFFCB6
FILE: 02. Vallée d'argent.flac
  Size: 28003459 Hash: 3C5CC3EA43C72359FD14E1BBF6C543C7 Accuracy: -m0
  Conclusion: CDDA 100%
  Signature: 530B85472DEAE3F8D282DE43136D6D5ABD00CE51
FILE: 01. Silence.flac
  Size: 10832454 Hash: 04812BA8CD01432DD3E4D5AA381101BF Accuracy: -m0
  Conclusion: CDDA 99%
  Signature: 201994465E757B23FE290DD48730FA1668C1AF7D
Правила, инструкции, FAQ!!!
Торрент  Добавлен [01 янв 2020, 22:49] Скачать торрент Магнет ссылка
Скачать торрент
[ Размер 17.17 КБ / Просмотров 8 ]

Статус
Проверен 
 
Размер  206.57 МБ
Приватный: Нет (DHT включён)
.torrent скачан  0
 


     Отправить личное сообщение
   
Страница 1 из 1
Показать сообщения за:  Поле сортировки  
Начать новую тему Ответить на тему


Сейчас этот форум просматривают: нет зарегистрированных пользователей и гости: 0


Вы не можете начинать темы
Вы не можете отвечать на сообщения
Вы не можете редактировать свои сообщения
Вы не можете удалять свои сообщения
Вы не можете добавлять вложения

Перейти:  
cron