Начать новую тему Ответить на тему
Статистика раздачи
Размер: 283.97 МБ | Добавлен: 01 янв 2020, 22:47 | Скачали: 0
Сидеров: 2  [0 байт/сек]    Личеров: 1  [0 байт/сек]
Пред. тема | След. тема 

Автор
Сообщение

СообщениеДобавлено: 01 янв 2020, 22:47 

Ответить с цитатой 

Raphael (Raphaël) / Hotel de l'univers
Жанр: Chanson / Pop Rock / Folk / French Rock
Страна-производитель диска: France
Год издания: 2000
Издатель (лейбл): EMI Music France
Номер по каталогу: 7243 5 29543 2 2
Страна: France
Аудиокодек: FLAC (*.flac)
Тип рипа: tracks+.cue
Битрейт аудио: lossless
Продолжительность: 44:13
Источник (релизер): What.cd (by Hekatombe974)
Наличие сканов в содержимом раздачи: нет
Треклист:
01. Cela nous aurait suffi (dayenou) (4:15)
02. Qu'on est bien dans ce monde (4:11)
03. Laisse faire (2:54)
04. Hotel de l'univers (3:39)
05. La meute (4:30)
06. Ici tout va bien (3:56)
07. On craindra plus les balles (3:59)
08. Choisis ton camp (4:35)
09. Petite annonce (3:54)
10. T'apporter mon amour (3:24)
11. Libre service (4:56)
Код:
Exact Audio Copy V0.99 prebeta 5 from 4. May 2009
EAC extraction logfile from 11. January 2011, 18:19
Raphael / Hotel de l'univers
Used drive  : TSSTcorpCD/DVDW TS-H552D   Adapter: 1  ID: 0
Read mode               : Secure
Utilize accurate stream : Yes
Defeat audio cache      : Yes
Make use of C2 pointers : No
Read offset correction                      : 6
Overread into Lead-In and Lead-Out          : No
Fill up missing offset samples with silence : Yes
Delete leading and trailing silent blocks   : No
Null samples used in CRC calculations       : Yes
Used interface                              : Installed external ASPI interface
Gap handling                                : Appended to previous track
Used output format              : User Defined Encoder
Selected bitrate                : 128 kBit/s
Quality                         : High
Add ID3 tag                     : No
Command line compressor         : C:\Program Files\Exact Audio Copy 0.99\Flac\flac.exe
Additional command line options : -V -8 -T "artist=%a" -T "title=%t" -T "album=%g" -T "date=%y" -T "tracknumber=%n" -T "genre=%m" %s
TOC of the extracted CD
     Track |   Start  |  Length  | Start sector | End sector
    ---------------------------------------------------------
        1  |  0:00.00 |  4:15.12 |         0    |    19136
        2  |  4:15.12 |  4:11.55 |     19137    |    38016
        3  |  8:26.67 |  2:54.45 |     38017    |    51111
        4  | 11:21.37 |  3:39.73 |     51112    |    67609
        5  | 15:01.35 |  4:30.00 |     67610    |    87859
        6  | 19:31.35 |  3:56.65 |     87860    |   105624
        7  | 23:28.25 |  3:59.42 |    105625    |   123591
        8  | 27:27.67 |  4:35.08 |    123592    |   144224
        9  | 32:03.00 |  3:54.40 |    144225    |   161814
       10  | 35:57.40 |  3:24.72 |    161815    |   177186
       11  | 39:22.37 |  4:56.23 |    177187    |   199409
Track  1
     Filename C:\EACrips\Raphael - 2000 - Hotel de l'univers (FLAC)\01 - Raphael - Cela nous aurait suffi (dayenou).wav
     Pre-gap length  0:00:02.00
     Peak level 99.3 %
     Track quality 100.0 %
     Test CRC B5A6AFC5
     Copy CRC B5A6AFC5
     Accurately ripped (confidence 13)  [2176F24D]
     Copy OK
Track  2
     Filename C:\EACrips\Raphael - 2000 - Hotel de l'univers (FLAC)\02 - Raphael - Qu'on est bien dans ce monde.wav
     Pre-gap length  0:00:02.05
     Peak level 99.3 %
     Track quality 100.0 %
     Test CRC C10308CA
     Copy CRC C10308CA
     Accurately ripped (confidence 14)  [D7E6407D]
     Copy OK
Track  3
     Filename C:\EACrips\Raphael - 2000 - Hotel de l'univers (FLAC)\03 - Raphael - Laisse faire.wav
     Peak level 99.3 %
     Track quality 100.0 %
     Test CRC 2505D117
     Copy CRC 2505D117
     Accurately ripped (confidence 14)  [E387D6EE]
     Copy OK
Track  4
     Filename C:\EACrips\Raphael - 2000 - Hotel de l'univers (FLAC)\04 - Raphael - Hotel de l'univers.wav
     Pre-gap length  0:00:02.15
     Peak level 99.3 %
     Track quality 100.0 %
     Test CRC 754925F1
     Copy CRC 754925F1
     Accurately ripped (confidence 14)  [868E80A6]
     Copy OK
Track  5
     Filename C:\EACrips\Raphael - 2000 - Hotel de l'univers (FLAC)\05 - Raphael - La meute.wav
     Pre-gap length  0:00:03.08
     Peak level 99.3 %
     Track quality 100.0 %
     Test CRC 3274FFFA
     Copy CRC 3274FFFA
     Accurately ripped (confidence 14)  [FCC025AA]
     Copy OK
Track  6
     Filename C:\EACrips\Raphael - 2000 - Hotel de l'univers (FLAC)\06 - Raphael - Ici tout va bien.wav
     Pre-gap length  0:00:00.58
     Peak level 99.3 %
     Track quality 100.0 %
     Test CRC 9964F862
     Copy CRC 9964F862
     Accurately ripped (confidence 14)  [2E3140AE]
     Copy OK
Track  7
     Filename C:\EACrips\Raphael - 2000 - Hotel de l'univers (FLAC)\07 - Raphael - On craindra plus les balles.wav
     Peak level 98.8 %
     Track quality 100.0 %
     Test CRC 7877D867
     Copy CRC 7877D867
     Accurately ripped (confidence 14)  [10A0BB93]
     Copy OK
Track  8
     Filename C:\EACrips\Raphael - 2000 - Hotel de l'univers (FLAC)\08 - Raphael - Choisis ton camp.wav
     Peak level 99.3 %
     Track quality 100.0 %
     Test CRC 64CB046B
     Copy CRC 64CB046B
     Accurately ripped (confidence 14)  [01009096]
     Copy OK
Track  9
     Filename C:\EACrips\Raphael - 2000 - Hotel de l'univers (FLAC)\09 - Raphael - Petite annonce.wav
     Pre-gap length  0:00:00.10
     Peak level 99.3 %
     Track quality 100.0 %
     Test CRC 5088A022
     Copy CRC 5088A022
     Accurately ripped (confidence 14)  [E521EEC2]
     Copy OK
Track 10
     Filename C:\EACrips\Raphael - 2000 - Hotel de l'univers (FLAC)\10 - Raphael - T'apporter mon amour.wav
     Pre-gap length  0:00:03.55
     Peak level 99.3 %
     Track quality 100.0 %
     Test CRC E3B643D8
     Copy CRC E3B643D8
     Accurately ripped (confidence 14)  [2B15193E]
     Copy OK
Track 11
     Filename C:\EACrips\Raphael - 2000 - Hotel de l'univers (FLAC)\11 - Raphael - Libre service.wav
     Peak level 97.6 %
     Track quality 100.0 %
     Test CRC 0D13A978
     Copy CRC 0D13A978
     Accurately ripped (confidence 14)  [B031E64B]
     Copy OK
All tracks accurately ripped
No errors occurred
End of status report
Код:
REM GENRE Pop Rock
REM DATE 2000
REM DISCID 910A620B
REM COMMENT "ExactAudioCopy v0.99pb5"
PERFORMER "Raphael"
TITLE "Hotel de l'univers"
FILE "01 - Raphael - Cela nous aurait suffi (dayenou).wav" WAVE
  TRACK 01 AUDIO
    TITLE "Cela nous aurait suffi (dayenou)"
    PERFORMER "Raphael"
    INDEX 01 00:00:00
  TRACK 02 AUDIO
    TITLE "Qu'on est bien dans ce monde"
    PERFORMER "Raphael"
    INDEX 00 04:13:07
FILE "02 - Raphael - Qu'on est bien dans ce monde.wav" WAVE
    INDEX 01 00:00:00
FILE "03 - Raphael - Laisse faire.wav" WAVE
  TRACK 03 AUDIO
    TITLE "Laisse faire"
    PERFORMER "Raphael"
    INDEX 01 00:00:00
  TRACK 04 AUDIO
    TITLE "Hotel de l'univers"
    PERFORMER "Raphael"
    INDEX 00 02:52:30
FILE "04 - Raphael - Hotel de l'univers.wav" WAVE
    INDEX 01 00:00:00
  TRACK 05 AUDIO
    TITLE "La meute"
    PERFORMER "Raphael"
    INDEX 00 03:36:65
FILE "05 - Raphael - La meute.wav" WAVE
    INDEX 01 00:00:00
  TRACK 06 AUDIO
    TITLE "Ici tout va bien"
    PERFORMER "Raphael"
    INDEX 00 04:29:17
FILE "06 - Raphael - Ici tout va bien.wav" WAVE
    INDEX 01 00:00:00
FILE "07 - Raphael - On craindra plus les balles.wav" WAVE
  TRACK 07 AUDIO
    TITLE "On craindra plus les balles"
    PERFORMER "Raphael"
    INDEX 01 00:00:00
FILE "08 - Raphael - Choisis ton camp.wav" WAVE
  TRACK 08 AUDIO
    TITLE "Choisis ton camp"
    PERFORMER "Raphael"
    INDEX 01 00:00:00
  TRACK 09 AUDIO
    TITLE "Petite annonce"
    PERFORMER "Raphael"
    INDEX 00 04:34:73
FILE "09 - Raphael - Petite annonce.wav" WAVE
    INDEX 01 00:00:00
  TRACK 10 AUDIO
    TITLE "T'apporter mon amour"
    PERFORMER "Raphael"
    INDEX 00 03:50:60
FILE "10 - Raphael - T'apporter mon amour.wav" WAVE
    INDEX 01 00:00:00
FILE "11 - Raphael - Libre service.wav" WAVE
  TRACK 11 AUDIO
    TITLE "Libre service"
    PERFORMER "Raphael"
    INDEX 01 00:00:00
Правила, инструкции, FAQ!!!
Торрент  Добавлен [01 янв 2020, 22:47] Скачать торрент Магнет ссылка
Скачать торрент
[ Размер 12.49 КБ / Просмотров 1 ]

Статус
Проверен 
 
Размер  283.97 МБ
Приватный: Нет (DHT включён)
.torrent скачан  0
 


     Отправить личное сообщение
   
Страница 1 из 1
Показать сообщения за:  Поле сортировки  
Начать новую тему Ответить на тему


Сейчас этот форум просматривают: нет зарегистрированных пользователей и гости: 0


Вы не можете начинать темы
Вы не можете отвечать на сообщения
Вы не можете редактировать свои сообщения
Вы не можете удалять свои сообщения
Вы не можете добавлять вложения

Перейти:  
cron