Начать новую тему Ответить на тему
Статистика раздачи
Размер: 377.65 МБ | Добавлен: 01 янв 2020, 23:00 | Скачали: 0
Сидеров: 0  [0 байт/сек]    Личеров: 0  [0 байт/сек]
Пред. тема | След. тема 

Автор
Сообщение

СообщениеДобавлено: 01 янв 2020, 23:00 

Ответить с цитатой 

Daniel Belanger / Nous
Жанр: Chanson, Pop Rock
Носитель: CD
Год издания: 2009
Издатель (лейбл): Audiogram
Номер по каталогу: ADCD 10267
Страна исполнителя (группы): Canada
Аудиокодек: FLAC (*.flac)
Тип рипа: image+.cue
Битрейт аудио: lossless
Продолжительность: 00:59:55
Источник (релизер): локальная сеть
Наличие сканов в содержимом раздачи: нет
Треклист:
1 Reste 6:19
2 Facile 3:45
3 Qui Ne Suis-Je? 3:27
4 Si L'amour Te Ressemblait 6:28
5 Jamais Loin 3:18
6 Le Toit Du Monde 5:23
7 Céleste 3:19
8 Impossible 2:39
9 J'aime Ton Soleil 2:46
10 L'équivalence Des Contraires 5:46
11 Roule 4:33
12 Mieux Vaut Voler 8:00
13 Tu Peux Partir 4:06
Код:
Exact Audio Copy V0.99 prebeta 5 from 4. May 2009
Отчёт EAC об извлечении, выполненном 30. декабря 2011, 13:05
Daniel Bйlanger / Nous
Дисковод: Optiarc BD ROM BC-5500A   Adapter: 0  ID: 0
Режим чтения                 : Достоверность
Использование точного потока : Да
Отключение кэша аудио        : Нет
Использование указателей C2  : Нет
Коррекция смещения при чтении                     : 48
Способность читать области Lead-in и Lead-out     : Нет
Заполнение пропущенных сэмплов тишиной            : Да
Удаление блоков с тишиной в начале и конце        : Нет
При вычислениях CRC использовались нулевые сэмплы : Да
Интерфейс                                         : Встроенный Win32-интерфейс для Win NT/2000
Выходной формат          : Пользовательский кодировщик
Выбранный битрейт        : 1024 kBit/s
Качество                 : Высокий
Добавление ID3-тэга      : Да
Утилита сжатия           : D:\Program Files\Exact Audio Copy\FLAC\FLAC.EXE
Дополнительные параметры : -6 -V -T "ARTIST=%a" -T "TITLE=%t" -T "ALBUM=%g" -T "DATE=%y" -T "TRACKNUMBER=%n" -T "GENRE=%m" -T "COMMENT=%e" %s -o %d
TOC извлечённого CD
     Трек |   Старт  | Длительность | Начальный сектор | Конечный сектор
    ---------------------------------------------------------------------
       1  |  0:00.00 |    6:19.56   |           0      |      28480
       2  |  6:19.56 |    3:45.22   |       28481      |      45377
       3  | 10:05.03 |    3:27.43   |       45378      |      60945
       4  | 13:32.46 |    6:28.55   |       60946      |      90100
       5  | 20:01.26 |    3:17.72   |       90101      |     104947
       6  | 23:19.23 |    5:23.54   |      104948      |     129226
       7  | 28:43.02 |    3:19.10   |      129227      |     144161
       8  | 32:02.12 |    2:39.60   |      144162      |     156146
       9  | 34:41.72 |    2:46.33   |      156147      |     168629
      10  | 37:28.30 |    5:46.03   |      168630      |     194582
      11  | 43:14.33 |    4:33.48   |      194583      |     215105
      12  | 47:48.06 |    8:00.33   |      215106      |     251138
      13  | 55:48.39 |    4:06.48   |      251139      |     269636
Характеристики диапазона извлечения и сообщения об ошибках
Выбранный диапазон
     Имя файла D:\Users\DSO\Desktop\Свежак\Daniel Belanger 2009 Nous (ADCD 10267) Lstb\Daniel Bйlanger - Nous.wav
     Пиковый уровень 100.0 %
     Качество диапазона 100.0 %
     CRC копии DF75BAC5
     Копирование... OK
Ошибок не произошло
AccurateRip: сводка
Трек  1  точное извлечение (доверие 13)  [B966133B]
Трек  2  точное извлечение (доверие 14)  [8E8FD41B]
Трек  3  точное извлечение (доверие 14)  [BA8BF91A]
Трек  4  точное извлечение (доверие 14)  [F1D5A945]
Трек  5  точное извлечение (доверие 14)  [57380167]
Трек  6  точное извлечение (доверие 14)  [B9166C8E]
Трек  7  точное извлечение (доверие 14)  [5EF3712D]
Трек  8  точное извлечение (доверие 14)  [60F7C66B]
Трек  9  точное извлечение (доверие 14)  [7686B686]
Трек 10  точное извлечение (доверие 14)  [BC7442D0]
Трек 11  точное извлечение (доверие 14)  [66255415]
Трек 12  точное извлечение (доверие 14)  [E6EC2832]
Трек 13  точное извлечение (доверие 14)  [F6BDA19B]
Все треки извлечены точно
Конец отчёта
Код:
REM GENRE Chanson
REM DATE 2009
REM DISCID 9B0E0B0D
REM COMMENT "ExactAudioCopy v0.99pb5"
PERFORMER "Daniel Bйlanger"
TITLE "Nous"
FILE "Daniel Bйlanger - Nous.flac" WAVE
  TRACK 01 AUDIO
    TITLE "Reste"
    PERFORMER "Daniel Bйlanger"
    INDEX 01 00:00:00
  TRACK 02 AUDIO
    TITLE "Facile"
    PERFORMER "Daniel Bйlanger"
    INDEX 01 06:19:56
  TRACK 03 AUDIO
    TITLE "Qui ne suis-je?"
    PERFORMER "Daniel Bйlanger"
    INDEX 00 10:04:62
    INDEX 01 10:05:03
  TRACK 04 AUDIO
    TITLE "Si l'amour te ressemblait"
    PERFORMER "Daniel Bйlanger"
    INDEX 00 13:30:57
    INDEX 01 13:32:46
  TRACK 05 AUDIO
    TITLE "Jamais loin"
    PERFORMER "Daniel Bйlanger"
    INDEX 00 20:01:01
    INDEX 01 20:01:26
  TRACK 06 AUDIO
    TITLE "Le toit du monde"
    PERFORMER "Daniel Bйlanger"
    INDEX 00 23:18:60
    INDEX 01 23:19:23
  TRACK 07 AUDIO
    TITLE "Cйleste"
    PERFORMER "Daniel Bйlanger"
    INDEX 00 28:42:29
    INDEX 01 28:43:02
  TRACK 08 AUDIO
    TITLE "Impossible"
    PERFORMER "Daniel Bйlanger"
    INDEX 01 32:02:12
  TRACK 09 AUDIO
    TITLE "J'aime ton soleil"
    PERFORMER "Daniel Bйlanger"
    INDEX 01 34:41:72
  TRACK 10 AUDIO
    TITLE "L'йquivalence des contraires"
    PERFORMER "Daniel Bйlanger"
    INDEX 01 37:28:30
  TRACK 11 AUDIO
    TITLE "Roule"
    PERFORMER "Daniel Bйlanger"
    INDEX 01 43:14:33
  TRACK 12 AUDIO
    TITLE "Mieux vaut voler"
    PERFORMER "Daniel Bйlanger"
    INDEX 00 47:47:32
    INDEX 01 47:48:06
  TRACK 13 AUDIO
    TITLE "Tu peux partir"
    PERFORMER "Daniel Bйlanger"
    INDEX 00 55:47:02
    INDEX 01 55:48:39
Правила, инструкции, FAQ!!!
Торрент  Добавлен [01 янв 2020, 23:00] Скачать торрент Магнет ссылка
Скачать торрент
[ Размер 15.41 КБ / Просмотров 5 ]

Статус
Проверен 
 
Размер  377.65 МБ
Приватный: Нет (DHT включён)
.torrent скачан  0
 


     Отправить личное сообщение
   
Страница 1 из 1
Показать сообщения за:  Поле сортировки  
Начать новую тему Ответить на тему


Сейчас этот форум просматривают: нет зарегистрированных пользователей и гости: 0


Вы не можете начинать темы
Вы не можете отвечать на сообщения
Вы не можете редактировать свои сообщения
Вы не можете удалять свои сообщения
Вы не можете добавлять вложения

Перейти:  
cron