Начать новую тему Ответить на тему
Статистика раздачи
Размер: 1.26 ГБ | Добавлен: 26 мар 2019, 19:46 | Скачали: 0
Сидеров: 0  [0 байт/сек]    Личеров: 0  [0 байт/сек]
Пред. тема | След. тема 

Автор
Сообщение

СообщениеДобавлено: 26 мар 2019, 19:46 

Ответить с цитатой 

Cali - La Vie Cowboy
Жанр: Chanson, Pop, Rock
Носитель: 3xCD
Страна-производитель диска (релиза): France
Год издания: 2013
Издатель (лейбл): BCBA Music
Номер по каталогу: 3285022
Страна исполнителя (группы): France
Аудиокодек: FLAC (*.flac)
Тип рипа: tracks+.cue
Битрейт аудио: lossless
Продолжительность: 3:28:57
Источник (релизер): рип собственный
Наличие сканов в содержимом раздачи: да
Треклист:
Код:
Bruno Caliciuri: Chant
Steve Nieve: Piano, Chant, Theremine, Melodica
1-1 Intro: Muriel on the beach  3:44
1-2 Murano  3:28
1-3 Madame Butterfly  4:47
1-4 Amour m'a tuer  3:56
1-5 Je sais ta vie  6:10
1-6 Une femme se repose  3:55
1-7 Menteur  5:00
1-8 Le grand jour  4:22
1-9 L'affiche rouge  5:27
1-10 Giuseppe et Maria  5:34
1-11 L'amour est éternel  4:21
1-12 Je rêve de voir l'été  4:01
1-13 Mes vieux cinglés  3:18
1-14 Pas la guerre  4:32
1-15 Dolorosa  2:41
1-16 Elle m'a dit  4:26
1-17 Est-ce que tu te souviens de ton premier baiser?  3:36
Код:
Bruno Caliciuri: Chant, Harmonica, Guitare
The Happy Feltchers are:
Philippe Entressangle: Batterie
Robert Johnson: Guitares
Julien Lebart: Piano, Orgue, Claviers
Alain Verderosa: Basse, Choerus
2-1 L'amour fou  8:07
2-2 Elle m'a dit  5:28
2-3 L'amour est éternel  3:25
2-4 Ce soir je te laisse partir  3:14
2-5 Venez me chercher  3:37
2-6 Tu me manques tellement  3:46
2-7 Comme j'étais en vie  4:06
2-8 Qui se soucie de moi  4:11
2-9 Putain de vie  5:31
2-10 Je sais ta vie  6:06
2-11 Cantona  4:01
2-12 Mon ami  3:43
2-13 Amour m'a tuer  4:43
2-14 Giuseppe et Maria  5:31
Код:
3-1 Ma douleur  5:35
3-2 Mille ans d'ennui  4:52
3-3 Une femme se repose  4:30
3-4 La grotte des amoureux  3:42
3-5 Mes vieux cinglés  2:57
3-6 Pablito (avec Daguerre)  4:41
3-7 Je m'en vais  5:08
3-8 Dolorosa  4:51
3-9 L'espoir  4:24
3-10 Sois sanctifié  5:19
3-11 Je rêve de voir l'été  5:09
3-12 C'est quand le bonheur  3:37
3-13 Mille coeurs debout  5:42
3-14 Happy End  9:16
Код:
Exact Audio Copy V1.2 from 12. August 2016
EAC extraction logfile from 10. January 2017, 19:42
Cali / La Vie Cowboy (disc 1)
Used drive  : hp      DVD-RAM GH80N   Adapter: 1  ID: 0
Read mode               : Secure
Utilize accurate stream : Yes
Defeat audio cache      : Yes
Make use of C2 pointers : No
Read offset correction                      : 667
Overread into Lead-In and Lead-Out          : No
Fill up missing offset samples with silence : Yes
Delete leading and trailing silent blocks   : No
Null samples used in CRC calculations       : Yes
Used interface                              : Native Win32 interface for Win NT & 2000
Gap handling                                : Appended to previous track
Used output format              : User Defined Encoder
Selected bitrate                : 1024 kBit/s
Quality                         : High
Add ID3 tag                     : No
Command line compressor         : C:\Program Files\Exact Audio Copy\Flac\flac.exe
Additional command line options : -8 -e -V -T "ARTIST=%artist%" -T "TITLE=%title%" -T "ALBUM=%albumtitle%" -T "DATE=%year%" -T "TRACKNUMBER=%tracknr%" -T "GENRE=%genre%" -T "PERFORMER=%albuminterpret%" -T "COMPOSER=%composer%" %haslyrics%--tag-from-file=LYRICS="%lyricsfile%"%haslyrics% -T "ALBUMARTIST=%albumartist%" -T "DISCNUMBER=%cdnumber%" -T "TOTALDISCS=%totalcds%" -T "TOTALTRACKS=%numtracks%" -T "COMMENT=%comment%" %source% -o %dest%
TOC of the extracted CD
     Track |   Start  |  Length  | Start sector | End sector
    ---------------------------------------------------------
        1  |  0:00.00 |  3:44.35 |         0    |    16834
        2  |  3:44.35 |  3:28.12 |     16835    |    32446
        3  |  7:12.47 |  4:47.66 |     32447    |    54037
        4  | 12:00.38 |  3:56.36 |     54038    |    71773
        5  | 15:56.74 |  6:10.03 |     71774    |    99526
        6  | 22:07.02 |  3:55.18 |     99527    |   117169
        7  | 26:02.20 |  5:00.61 |    117170    |   139730
        8  | 31:03.06 |  4:22.08 |    139731    |   159388
        9  | 35:25.14 |  5:27.29 |    159389    |   183942
       10  | 40:52.43 |  5:34.09 |    183943    |   209001
       11  | 46:26.52 |  4:21.17 |    209002    |   228593
       12  | 50:47.69 |  4:01.04 |    228594    |   246672
       13  | 54:48.73 |  3:18.21 |    246673    |   261543
       14  | 58:07.19 |  4:32.60 |    261544    |   282003
       15  | 62:40.04 |  2:41.71 |    282004    |   294149
       16  | 65:22.00 |  4:26.69 |    294150    |   314168
       17  | 69:48.69 |  3:36.51 |    314169    |   330419
Track  1
     Filename C:\Sounds\Cali - La Vie Cowboy (2013)[FLAC]\Disc 1\01 - Muriel on the beach.wav
     Pre-gap length  0:00:02.00
     Peak level 74.4 %
     Extraction speed 1.8 X
     Track quality 100.0 %
     Test CRC 21442F2F
     Copy CRC 21442F2F
     Accurately ripped (confidence 2)  [8F1DE367]  (AR v2)
     Copy OK
Track  2
     Filename C:\Sounds\Cali - La Vie Cowboy (2013)[FLAC]\Disc 1\02 - Murano.wav
     Peak level 74.9 %
     Extraction speed 1.7 X
     Track quality 99.9 %
     Test CRC CA9989BD
     Copy CRC CA9989BD
     Accurately ripped (confidence 2)  [737736F4]  (AR v2)
     Copy OK
Track  3
     Filename C:\Sounds\Cali - La Vie Cowboy (2013)[FLAC]\Disc 1\03 - Butterfly.wav
     Peak level 74.9 %
     Extraction speed 2.3 X
     Track quality 100.0 %
     Test CRC A1DD4EF9
     Copy CRC A1DD4EF9
     Accurately ripped (confidence 2)  [111BC6D1]  (AR v2)
     Copy OK
Track  4
     Filename C:\Sounds\Cali - La Vie Cowboy (2013)[FLAC]\Disc 1\04 - Amour m'a tuer.wav
     Peak level 74.9 %
     Extraction speed 2.4 X
     Track quality 100.0 %
     Test CRC 3B8E3264
     Copy CRC 3B8E3264
     Accurately ripped (confidence 2)  [73B54F0A]  (AR v2)
     Copy OK
Track  5
     Filename C:\Sounds\Cali - La Vie Cowboy (2013)[FLAC]\Disc 1\05 - Je sais ta vie.wav
     Peak level 74.9 %
     Extraction speed 2.6 X
     Track quality 100.0 %
     Test CRC E6A98E7B
     Copy CRC E6A98E7B
     Accurately ripped (confidence 2)  [55F6F106]  (AR v2)
     Copy OK
Track  6
     Filename C:\Sounds\Cali - La Vie Cowboy (2013)[FLAC]\Disc 1\06 - Une femme se repose.wav
     Peak level 74.9 %
     Extraction speed 2.6 X
     Track quality 100.0 %
     Test CRC 2722E830
     Copy CRC 2722E830
     Accurately ripped (confidence 2)  [AE9D7163]  (AR v2)
     Copy OK
Track  7
     Filename C:\Sounds\Cali - La Vie Cowboy (2013)[FLAC]\Disc 1\07 - Menteur.wav
     Peak level 74.9 %
     Extraction speed 2.9 X
     Track quality 100.0 %
     Test CRC 0797BC4A
     Copy CRC 0797BC4A
     Accurately ripped (confidence 2)  [868DF9D5]  (AR v2)
     Copy OK
Track  8
     Filename C:\Sounds\Cali - La Vie Cowboy (2013)[FLAC]\Disc 1\08 - Le grand jour.wav
     Peak level 74.9 %
     Extraction speed 3.0 X
     Track quality 100.0 %
     Test CRC 083CCB27
     Copy CRC 083CCB27
     Accurately ripped (confidence 2)  [9875FDB6]  (AR v2)
     Copy OK
Track  9
     Filename C:\Sounds\Cali - La Vie Cowboy (2013)[FLAC]\Disc 1\09 - L'affiche rouge.wav
     Peak level 74.9 %
     Extraction speed 3.2 X
     Track quality 100.0 %
     Test CRC C17F2FBE
     Copy CRC C17F2FBE
     Accurately ripped (confidence 2)  [583EB326]  (AR v2)
     Copy OK
Track 10
     Filename C:\Sounds\Cali - La Vie Cowboy (2013)[FLAC]\Disc 1\10 - Giuseppe et Maria.wav
     Peak level 74.6 %
     Extraction speed 3.4 X
     Track quality 100.0 %
     Test CRC 824D5369
     Copy CRC 824D5369
     Accurately ripped (confidence 2)  [F0533E6C]  (AR v2)
     Copy OK
Track 11
     Filename C:\Sounds\Cali - La Vie Cowboy (2013)[FLAC]\Disc 1\11 - L'amour est eternel.wav
     Peak level 74.9 %
     Extraction speed 3.3 X
     Track quality 100.0 %
     Test CRC 1628585F
     Copy CRC 1628585F
     Accurately ripped (confidence 2)  [C4F0A987]  (AR v2)
     Copy OK
Track 12
     Filename C:\Sounds\Cali - La Vie Cowboy (2013)[FLAC]\Disc 1\12 - Je reve de voir l'ete.wav
     Peak level 60.7 %
     Extraction speed 3.4 X
     Track quality 100.0 %
     Test CRC 9A58A693
     Copy CRC 9A58A693
     Accurately ripped (confidence 2)  [76FE2431]  (AR v2)
     Copy OK
Track 13
     Filename C:\Sounds\Cali - La Vie Cowboy (2013)[FLAC]\Disc 1\13 - Mes vieux cingles.wav
     Peak level 66.1 %
     Extraction speed 3.4 X
     Track quality 100.0 %
     Test CRC 7C7BE0DD
     Copy CRC 7C7BE0DD
     Accurately ripped (confidence 2)  [B459C27B]  (AR v2)
     Copy OK
Track 14
     Filename C:\Sounds\Cali - La Vie Cowboy (2013)[FLAC]\Disc 1\14 - Pas la guerre.wav
     Peak level 74.9 %
     Extraction speed 3.6 X
     Track quality 100.0 %
     Test CRC 0EF4E89D
     Copy CRC 0EF4E89D
     Accurately ripped (confidence 2)  [3D951A4B]  (AR v2)
     Copy OK
Track 15
     Filename C:\Sounds\Cali - La Vie Cowboy (2013)[FLAC]\Disc 1\15 - Dolorosa.wav
     Peak level 74.9 %
     Extraction speed 3.3 X
     Track quality 100.0 %
     Test CRC DC3C76A2
     Copy CRC DC3C76A2
     Accurately ripped (confidence 2)  [66964AB4]  (AR v2)
     Copy OK
Track 16
     Filename C:\Sounds\Cali - La Vie Cowboy (2013)[FLAC]\Disc 1\16 - Elle m'a dit.wav
     Peak level 74.9 %
     Extraction speed 3.4 X
     Track quality 99.9 %
     Test CRC CB4EDD78
     Copy CRC CB4EDD78
     Accurately ripped (confidence 2)  [0FDC365F]  (AR v2)
     Copy OK
Track 17
     Filename C:\Sounds\Cali - La Vie Cowboy (2013)[FLAC]\Disc 1\17 - Est ce que tu te souviens de ton premier baiser.wav
     Peak level 74.7 %
     Extraction speed 3.8 X
     Track quality 100.0 %
     Test CRC A62BC502
     Copy CRC A62BC502
     Accurately ripped (confidence 2)  [2BADD794]  (AR v2)
     Copy OK
All tracks accurately ripped
No errors occurred
End of status report
---- CUETools DB Plugin V2.1.6
[CTDB TOCID: K3RqcRw8u8B0QJr1sBg_AYWSKm4-] found
Submit result: K3RqcRw8u8B0QJr1sBg_AYWSKm4- has been confirmed
Track | CTDB Status
  1   | (7/7) Accurately ripped
  2   | (7/7) Accurately ripped
  3   | (7/7) Accurately ripped
  4   | (7/7) Accurately ripped
  5   | (7/7) Accurately ripped
  6   | (7/7) Accurately ripped
  7   | (7/7) Accurately ripped
  8   | (7/7) Accurately ripped
  9   | (7/7) Accurately ripped
 10   | (7/7) Accurately ripped
 11   | (7/7) Accurately ripped
 12   | (7/7) Accurately ripped
 13   | (7/7) Accurately ripped
 14   | (7/7) Accurately ripped
 15   | (7/7) Accurately ripped
 16   | (7/7) Accurately ripped
 17   | (7/7) Accurately ripped
==== Log checksum 4B3B451774C2340F3BEBAC538828EEF489130192C843306F6417688DFCE978F0 ====
Код:
Exact Audio Copy V1.2 from 12. August 2016
EAC extraction logfile from 10. January 2017, 17:41
Cali / La Vie Cowboy (disc 2)
Used drive  : hp      DVD-RAM GH80N   Adapter: 1  ID: 0
Read mode               : Secure
Utilize accurate stream : Yes
Defeat audio cache      : Yes
Make use of C2 pointers : No
Read offset correction                      : 667
Overread into Lead-In and Lead-Out          : No
Fill up missing offset samples with silence : Yes
Delete leading and trailing silent blocks   : No
Null samples used in CRC calculations       : Yes
Used interface                              : Native Win32 interface for Win NT & 2000
Gap handling                                : Appended to previous track
Used output format              : User Defined Encoder
Selected bitrate                : 1024 kBit/s
Quality                         : High
Add ID3 tag                     : No
Command line compressor         : C:\Program Files\Exact Audio Copy\Flac\flac.exe
Additional command line options : -8 -e -V -T "ARTIST=%artist%" -T "TITLE=%title%" -T "ALBUM=%albumtitle%" -T "DATE=%year%" -T "TRACKNUMBER=%tracknr%" -T "GENRE=%genre%" -T "PERFORMER=%albuminterpret%" -T "COMPOSER=%composer%" %haslyrics%--tag-from-file=LYRICS="%lyricsfile%"%haslyrics% -T "ALBUMARTIST=%albumartist%" -T "DISCNUMBER=%cdnumber%" -T "TOTALDISCS=%totalcds%" -T "TOTALTRACKS=%numtracks%" -T "COMMENT=%comment%" %source% -o %dest%
TOC of the extracted CD
     Track |   Start  |  Length  | Start sector | End sector
    ---------------------------------------------------------
        1  |  0:00.00 |  8:07.71 |         0    |    36595
        2  |  8:07.71 |  5:28.09 |     36596    |    61204
        3  | 13:36.05 |  3:25.10 |     61205    |    76589
        4  | 17:01.15 |  3:14.74 |     76590    |    91213
        5  | 20:16.14 |  3:37.35 |     91214    |   107523
        6  | 23:53.49 |  3:46.53 |    107524    |   124526
        7  | 27:40.27 |  4:06.40 |    124527    |   143016
        8  | 31:46.67 |  4:11.25 |    143017    |   161866
        9  | 35:58.17 |  5:31.25 |    161867    |   186716
       10  | 41:29.42 |  6:06.17 |    186717    |   214183
       11  | 47:35.59 |  4:01.33 |    214184    |   232291
       12  | 51:37.17 |  3:43.34 |    232292    |   249050
       13  | 55:20.51 |  4:43.46 |    249051    |   270321
       14  | 60:04.22 |  5:31.70 |    270322    |   295216
Track  1
     Filename C:\Sounds\Cali - La Vie Cowboy (2013)[FLAC]\Disc 2\01 - L'amour fou.wav
     Pre-gap length  0:00:02.00
     Peak level 100.0 %
     Extraction speed 2.1 X
     Track quality 100.0 %
     Test CRC B2A569CA
     Copy CRC B2A569CA
     Accurately ripped (confidence 1)  [6E36EE36]  (AR v2)
     Copy OK
Track  2
     Filename C:\Sounds\Cali - La Vie Cowboy (2013)[FLAC]\Disc 2\02 - Elle m'a dit.wav
     Peak level 100.0 %
     Extraction speed 2.4 X
     Track quality 100.0 %
     Test CRC 80397794
     Copy CRC 80397794
     Accurately ripped (confidence 1)  [B7A33E9E]  (AR v2)
     Copy OK
Track  3
     Filename C:\Sounds\Cali - La Vie Cowboy (2013)[FLAC]\Disc 2\03 - L'amour est eternel.wav
     Peak level 100.0 %
     Extraction speed 2.4 X
     Track quality 100.0 %
     Test CRC 24E3ABAA
     Copy CRC 24E3ABAA
     Accurately ripped (confidence 1)  [B3F28BCB]  (AR v2)
     Copy OK
Track  4
     Filename C:\Sounds\Cali - La Vie Cowboy (2013)[FLAC]\Disc 2\04 - Ce soir je te laisse partir.wav
     Peak level 100.0 %
     Extraction speed 2.5 X
     Track quality 100.0 %
     Test CRC 932A9651
     Copy CRC 932A9651
     Accurately ripped (confidence 1)  [7DACA591]  (AR v2)
     Copy OK
Track  5
     Filename C:\Sounds\Cali - La Vie Cowboy (2013)[FLAC]\Disc 2\05 - Venez me chercher.wav
     Peak level 100.0 %
     Extraction speed 2.3 X
     Track quality 99.9 %
     Test CRC 62AA52C8
     Copy CRC 62AA52C8
     Accurately ripped (confidence 1)  [3049B0ED]  (AR v2)
     Copy OK
Track  6
     Filename C:\Sounds\Cali - La Vie Cowboy (2013)[FLAC]\Disc 2\06 - Tu me manques tellement.wav
     Peak level 100.0 %
     Extraction speed 2.4 X
     Track quality 99.9 %
     Test CRC A7DC6B69
     Copy CRC A7DC6B69
     Accurately ripped (confidence 1)  [56771A1E]  (AR v2)
     Copy OK
Track  7
     Filename C:\Sounds\Cali - La Vie Cowboy (2013)[FLAC]\Disc 2\07 - Comme j'etais en vie.wav
     Peak level 99.8 %
     Extraction speed 2.9 X
     Track quality 100.0 %
     Test CRC 89EAA420
     Copy CRC 89EAA420
     Accurately ripped (confidence 1)  [5123FD93]  (AR v2)
     Copy OK
Track  8
     Filename C:\Sounds\Cali - La Vie Cowboy (2013)[FLAC]\Disc 2\08 - Qui se soucie de moi.wav
     Peak level 100.0 %
     Extraction speed 2.7 X
     Track quality 99.9 %
     Test CRC E1AC06AE
     Copy CRC E1AC06AE
     Accurately ripped (confidence 1)  [7CDF543B]  (AR v2)
     Copy OK
Track  9
     Filename C:\Sounds\Cali - La Vie Cowboy (2013)[FLAC]\Disc 2\09 - Putain de vie.wav
     Peak level 100.0 %
     Extraction speed 3.0 X
     Track quality 99.9 %
     Test CRC 44A29D3F
     Copy CRC 44A29D3F
     Accurately ripped (confidence 1)  [96A32C4B]  (AR v2)
     Copy OK
Track 10
     Filename C:\Sounds\Cali - La Vie Cowboy (2013)[FLAC]\Disc 2\10 - Je sais ta vie.wav
     Peak level 100.0 %
     Extraction speed 3.5 X
     Track quality 100.0 %
     Test CRC AE040239
     Copy CRC AE040239
     Accurately ripped (confidence 1)  [EFBEBF56]  (AR v2)
     Copy OK
Track 11
     Filename C:\Sounds\Cali - La Vie Cowboy (2013)[FLAC]\Disc 2\11 - Cantona.wav
     Peak level 100.0 %
     Extraction speed 3.5 X
     Track quality 100.0 %
     Test CRC 5F9B022B
     Copy CRC 5F9B022B
     Accurately ripped (confidence 1)  [6A33C42D]  (AR v2)
     Copy OK
Track 12
     Filename C:\Sounds\Cali - La Vie Cowboy (2013)[FLAC]\Disc 2\12 - Mon ami.wav
     Peak level 100.0 %
     Extraction speed 3.1 X
     Track quality 99.9 %
     Test CRC CE867E10
     Copy CRC CE867E10
     Accurately ripped (confidence 1)  [CF25674B]  (AR v2)
     Copy OK
Track 13
     Filename C:\Sounds\Cali - La Vie Cowboy (2013)[FLAC]\Disc 2\13 - Amour m'a tuer.wav
     Peak level 100.0 %
     Extraction speed 3.8 X
     Track quality 100.0 %
     Test CRC 0B174945
     Copy CRC 0B174945
     Accurately ripped (confidence 1)  [5A3D3B3A]  (AR v2)
     Copy OK
Track 14
     Filename C:\Sounds\Cali - La Vie Cowboy (2013)[FLAC]\Disc 2\14 - Giuseppe et Maria.wav
     Peak level 100.0 %
     Extraction speed 4.0 X
     Track quality 100.0 %
     Test CRC 5DC09532
     Copy CRC 5DC09532
     Accurately ripped (confidence 1)  [3F913557]  (AR v2)
     Copy OK
All tracks accurately ripped
No errors occurred
End of status report
---- CUETools DB Plugin V2.1.6
[CTDB TOCID: Zh_Nyu7CHB2BZs3pHFa9sdvs9QE-] found
Submit result: Zh_Nyu7CHB2BZs3pHFa9sdvs9QE- has been confirmed
Track | CTDB Status
  1   | (6/6) Accurately ripped
  2   | (6/6) Accurately ripped
  3   | (6/6) Accurately ripped
  4   | (6/6) Accurately ripped
  5   | (6/6) Accurately ripped
  6   | (6/6) Accurately ripped
  7   | (6/6) Accurately ripped
  8   | (6/6) Accurately ripped
  9   | (6/6) Accurately ripped
 10   | (6/6) Accurately ripped
 11   | (6/6) Accurately ripped
 12   | (6/6) Accurately ripped
 13   | (6/6) Accurately ripped
 14   | (6/6) Accurately ripped
==== Log checksum 74B2B3620A1980BFDD4B1B099956AE15FE8DB263AC263A1FDAD9D3A0DFA6F6D5 ====
Код:
Exact Audio Copy V1.2 from 12. August 2016
EAC extraction logfile from 10. January 2017, 18:40
Cali / La Vie Cowboy (disc 3)
Used drive  : hp      DVD-RAM GH80N   Adapter: 1  ID: 0
Read mode               : Secure
Utilize accurate stream : Yes
Defeat audio cache      : Yes
Make use of C2 pointers : No
Read offset correction                      : 667
Overread into Lead-In and Lead-Out          : No
Fill up missing offset samples with silence : Yes
Delete leading and trailing silent blocks   : No
Null samples used in CRC calculations       : Yes
Used interface                              : Native Win32 interface for Win NT & 2000
Gap handling                                : Appended to previous track
Used output format              : User Defined Encoder
Selected bitrate                : 1024 kBit/s
Quality                         : High
Add ID3 tag                     : No
Command line compressor         : C:\Program Files\Exact Audio Copy\Flac\flac.exe
Additional command line options : -8 -e -V -T "ARTIST=%artist%" -T "TITLE=%title%" -T "ALBUM=%albumtitle%" -T "DATE=%year%" -T "TRACKNUMBER=%tracknr%" -T "GENRE=%genre%" -T "PERFORMER=%albuminterpret%" -T "COMPOSER=%composer%" %haslyrics%--tag-from-file=LYRICS="%lyricsfile%"%haslyrics% -T "ALBUMARTIST=%albumartist%" -T "DISCNUMBER=%cdnumber%" -T "TOTALDISCS=%totalcds%" -T "TOTALTRACKS=%numtracks%" -T "COMMENT=%comment%" %source% -o %dest%
TOC of the extracted CD
     Track |   Start  |  Length  | Start sector | End sector
    ---------------------------------------------------------
        1  |  0:00.00 |  5:35.08 |         0    |    25132
        2  |  5:35.08 |  4:52.09 |     25133    |    47041
        3  | 10:27.17 |  4:30.59 |     47042    |    67350
        4  | 14:58.01 |  3:42.06 |     67351    |    84006
        5  | 18:40.07 |  3:24.24 |     84007    |    99330
        6  | 22:04.31 |  4:41.38 |     99331    |   120443
        7  | 26:45.69 |  5:08.62 |    120444    |   143605
        8  | 31:54.56 |  4:51.23 |    143606    |   165453
        9  | 36:46.04 |  4:24.53 |    165454    |   185306
       10  | 41:10.57 |  5:19.22 |    185307    |   209253
       11  | 46:30.04 |  5:09.32 |    209254    |   232460
       12  | 51:39.36 |  3:37.29 |    232461    |   248764
       13  | 55:16.65 |  5:42.47 |    248765    |   274461
       14  | 60:59.37 |  9:16.42 |    274462    |   316203
Track  1
     Filename C:\Sounds\Cali - La Vie Cowboy (2013)[FLAC]\Disc 3\01 - Ma douleur.wav
     Pre-gap length  0:00:02.00
     Peak level 99.8 %
     Extraction speed 2.0 X
     Track quality 100.0 %
     Test CRC EC71F1A1
     Copy CRC EC71F1A1
     Accurately ripped (confidence 2)  [6D6C88AD]  (AR v2)
     Copy OK
Track  2
     Filename C:\Sounds\Cali - La Vie Cowboy (2013)[FLAC]\Disc 3\02 - Mille ans d'ennui.wav
     Peak level 99.8 %
     Extraction speed 2.2 X
     Track quality 100.0 %
     Test CRC A8932362
     Copy CRC A8932362
     Accurately ripped (confidence 2)  [B793FB72]  (AR v2)
     Copy OK
Track  3
     Filename C:\Sounds\Cali - La Vie Cowboy (2013)[FLAC]\Disc 3\03 - Une femme se repose.wav
     Peak level 100.0 %
     Extraction speed 2.4 X
     Track quality 100.0 %
     Test CRC 20AF42A2
     Copy CRC 20AF42A2
     Accurately ripped (confidence 2)  [681D0AA5]  (AR v2)
     Copy OK
Track  4
     Filename C:\Sounds\Cali - La Vie Cowboy (2013)[FLAC]\Disc 3\04 - La grotte des amoureux.wav
     Peak level 99.8 %
     Extraction speed 2.1 X
     Track quality 99.9 %
     Test CRC DD9C49A8
     Copy CRC DD9C49A8
     Accurately ripped (confidence 2)  [0DF62D26]  (AR v2)
     Copy OK
Track  5
     Filename C:\Sounds\Cali - La Vie Cowboy (2013)[FLAC]\Disc 3\05 - Mes vieux cingles.wav
     Peak level 99.8 %
     Extraction speed 2.6 X
     Track quality 100.0 %
     Test CRC 402ECDF1
     Copy CRC 402ECDF1
     Accurately ripped (confidence 2)  [200285D9]  (AR v2)
     Copy OK
Track  6
     Filename C:\Sounds\Cali - La Vie Cowboy (2013)[FLAC]\Disc 3\06 - Pablito.wav
     Pre-gap length  0:00:26.52
     Peak level 100.0 %
     Extraction speed 2.5 X
     Track quality 99.9 %
     Test CRC 17AAB2D5
     Copy CRC 17AAB2D5
     Accurately ripped (confidence 2)  [312FA7B2]  (AR v2)
     Copy OK
Track  7
     Filename C:\Sounds\Cali - La Vie Cowboy (2013)[FLAC]\Disc 3\07 - Je m'en vais.wav
     Peak level 100.0 %
     Extraction speed 3.0 X
     Track quality 100.0 %
     Test CRC F525A1C4
     Copy CRC F525A1C4
     Accurately ripped (confidence 2)  [15CB2886]  (AR v2)
     Copy OK
Track  8
     Filename C:\Sounds\Cali - La Vie Cowboy (2013)[FLAC]\Disc 3\08 - Dolorosa.wav
     Peak level 100.0 %
     Extraction speed 3.2 X
     Track quality 100.0 %
     Test CRC AE42DC21
     Copy CRC AE42DC21
     Accurately ripped (confidence 2)  [3BC15F5B]  (AR v2)
     Copy OK
Track  9
     Filename C:\Sounds\Cali - La Vie Cowboy (2013)[FLAC]\Disc 3\09 - L'espoir.wav
     Peak level 100.0 %
     Extraction speed 3.2 X
     Track quality 100.0 %
     Test CRC F66CDC62
     Copy CRC F66CDC62
     Accurately ripped (confidence 2)  [F4687C03]  (AR v2)
     Copy OK
Track 10
     Filename C:\Sounds\Cali - La Vie Cowboy (2013)[FLAC]\Disc 3\10 - Sois sanctifie.wav
     Peak level 100.0 %
     Extraction speed 3.3 X
     Track quality 100.0 %
     Test CRC 2C48DD8D
     Copy CRC 2C48DD8D
     Accurately ripped (confidence 2)  [AE59B63D]  (AR v2)
     Copy OK
Track 11
     Filename C:\Sounds\Cali - La Vie Cowboy (2013)[FLAC]\Disc 3\11 - Je rкve de voir l'ete.wav
     Peak level 100.0 %
     Extraction speed 3.2 X
     Track quality 99.9 %
     Test CRC 27E5DBF1
     Copy CRC 27E5DBF1
     Accurately ripped (confidence 2)  [72958BDE]  (AR v2)
     Copy OK
Track 12
     Filename C:\Sounds\Cali - La Vie Cowboy (2013)[FLAC]\Disc 3\12 - C'est quand le bonheur.wav
     Peak level 99.8 %
     Extraction speed 3.4 X
     Track quality 100.0 %
     Test CRC 926D4A4E
     Copy CRC 926D4A4E
     Accurately ripped (confidence 2)  [7A599754]  (AR v2)
     Copy OK
Track 13
     Filename C:\Sounds\Cali - La Vie Cowboy (2013)[FLAC]\Disc 3\13 - Mille coeurs debout.wav
     Peak level 100.0 %
     Extraction speed 3.4 X
     Track quality 99.9 %
     Test CRC D65D44DE
     Copy CRC D65D44DE
     Accurately ripped (confidence 2)  [42BD1674]  (AR v2)
     Copy OK
Track 14
     Filename C:\Sounds\Cali - La Vie Cowboy (2013)[FLAC]\Disc 3\14 - Happy end.wav
     Pre-gap length  0:00:00.01
     Peak level 99.8 %
     Extraction speed 4.2 X
     Track quality 100.0 %
     Test CRC 16CAB0FC
     Copy CRC 16CAB0FC
     Accurately ripped (confidence 2)  [49A90D9E]  (AR v2)
     Copy OK
All tracks accurately ripped
No errors occurred
End of status report
---- CUETools DB Plugin V2.1.6
[CTDB TOCID: lqoC5n0Y0RJEKe5hKhByPDgN4ko-] found
Submit result: lqoC5n0Y0RJEKe5hKhByPDgN4ko- has been confirmed
Track | CTDB Status
  1   | (7/7) Accurately ripped
  2   | (7/7) Accurately ripped
  3   | (7/7) Accurately ripped
  4   | (7/7) Accurately ripped
  5   | (7/7) Accurately ripped
  6   | (7/7) Accurately ripped
  7   | (7/7) Accurately ripped
  8   | (7/7) Accurately ripped
  9   | (7/7) Accurately ripped
 10   | (7/7) Accurately ripped
 11   | (7/7) Accurately ripped
 12   | (7/7) Accurately ripped
 13   | (7/7) Accurately ripped
 14   | (7/7) Accurately ripped
==== Log checksum 8100676F1F0AD2BF1DBDC24C09451D20CAE2F873D1C1F6EBA16D9BEDC027D9A0 ====
Код:
REM GENRE Chanson
REM DATE 2013
REM DISCID 08113511
REM COMMENT "ExactAudioCopy v1.2"
CATALOG 3596972850226
PERFORMER "Cali"
TITLE "La Vie Cowboy (disc 1)"
REM COMPOSER ""
FILE "01 - Muriel on the beach.wav" WAVE
  TRACK 01 AUDIO
    TITLE "Muriel on the beach"
    PERFORMER "Cali"
    REM COMPOSER ""
    ISRC FR4071200060
    INDEX 01 00:00:00
FILE "02 - Murano.wav" WAVE
  TRACK 02 AUDIO
    TITLE "Murano"
    PERFORMER "Cali"
    REM COMPOSER ""
    ISRC FR4071200070
    INDEX 01 00:00:00
FILE "03 - Butterfly.wav" WAVE
  TRACK 03 AUDIO
    TITLE "Butterfly"
    PERFORMER "Cali"
    REM COMPOSER ""
    ISRC FR4071200080
    INDEX 01 00:00:00
FILE "04 - Amour m'a tuer.wav" WAVE
  TRACK 04 AUDIO
    TITLE "Amour m'a tuer"
    PERFORMER "Cali"
    REM COMPOSER ""
    ISRC FR4071200090
    INDEX 01 00:00:00
FILE "05 - Je sais ta vie.wav" WAVE
  TRACK 05 AUDIO
    TITLE "Je sais ta vie"
    PERFORMER "Cali"
    REM COMPOSER ""
    ISRC FR4071200100
    INDEX 01 00:00:00
FILE "06 - Une femme se repose.wav" WAVE
  TRACK 06 AUDIO
    TITLE "Une femme se repose"
    PERFORMER "Cali"
    REM COMPOSER ""
    ISRC FR4071200110
    INDEX 01 00:00:00
FILE "07 - Menteur.wav" WAVE
  TRACK 07 AUDIO
    TITLE "Menteur"
    PERFORMER "Cali"
    REM COMPOSER ""
    ISRC FR4071200120
    INDEX 01 00:00:00
FILE "08 - Le grand jour.wav" WAVE
  TRACK 08 AUDIO
    TITLE "Le grand jour"
    PERFORMER "Cali"
    REM COMPOSER ""
    ISRC FR4071200130
    INDEX 01 00:00:00
FILE "09 - L'affiche rouge.wav" WAVE
  TRACK 09 AUDIO
    TITLE "L'affiche rouge"
    PERFORMER "Cali"
    REM COMPOSER ""
    ISRC FR4071200140
    INDEX 01 00:00:00
FILE "10 - Giuseppe et Maria.wav" WAVE
  TRACK 10 AUDIO
    TITLE "Giuseppe et Maria"
    PERFORMER "Cali"
    REM COMPOSER ""
    ISRC FR4071200150
    INDEX 01 00:00:00
FILE "11 - L'amour est eternel.wav" WAVE
  TRACK 11 AUDIO
    TITLE "L'amour est eternel"
    PERFORMER "Cali"
    REM COMPOSER ""
    ISRC FR4071200160
    INDEX 01 00:00:00
FILE "12 - Je reve de voir l'ete.wav" WAVE
  TRACK 12 AUDIO
    TITLE "Je reve de voir l'ete"
    PERFORMER "Cali"
    REM COMPOSER ""
    ISRC FR4071200170
    INDEX 01 00:00:00
FILE "13 - Mes vieux cingles.wav" WAVE
  TRACK 13 AUDIO
    TITLE "Mes vieux cingles"
    PERFORMER "Cali"
    REM COMPOSER ""
    ISRC FR4071200180
    INDEX 01 00:00:00
FILE "14 - Pas la guerre.wav" WAVE
  TRACK 14 AUDIO
    TITLE "Pas la guerre"
    PERFORMER "Cali"
    REM COMPOSER ""
    ISRC FR4071200190
    INDEX 01 00:00:00
FILE "15 - Dolorosa.wav" WAVE
  TRACK 15 AUDIO
    TITLE "Dolorosa"
    PERFORMER "Cali"
    REM COMPOSER ""
    ISRC FR4071200200
    INDEX 01 00:00:00
FILE "16 - Elle m'a dit.wav" WAVE
  TRACK 16 AUDIO
    TITLE "Elle m'a dit"
    PERFORMER "Cali"
    REM COMPOSER ""
    ISRC FR4071200210
    INDEX 01 00:00:00
FILE "17 - Est ce que tu te souviens de ton premier baiser.wav" WAVE
  TRACK 17 AUDIO
    TITLE "Est ce que tu te souviens de ton premier baiser?"
    PERFORMER "Cali"
    REM COMPOSER ""
    ISRC FR4071200220
    INDEX 01 00:00:00
Код:
REM GENRE Chanson
REM DATE 2013
REM DISCID C50F600E
REM COMMENT "ExactAudioCopy v1.2"
CATALOG 3596972850226
PERFORMER "Cali"
TITLE "La Vie Cowboy (disc 2)"
REM COMPOSER ""
FILE "01 - L'amour fou.wav" WAVE
  TRACK 01 AUDIO
    TITLE "L'amour fou"
    PERFORMER "Cali"
    REM COMPOSER ""
    ISRC FR4071300230
    INDEX 01 00:00:00
FILE "02 - Elle m'a dit.wav" WAVE
  TRACK 02 AUDIO
    TITLE "Elle m'a dit"
    PERFORMER "Cali"
    REM COMPOSER ""
    ISRC FR4071300240
    INDEX 01 00:00:00
FILE "03 - L'amour est eternel.wav" WAVE
  TRACK 03 AUDIO
    TITLE "L'amour est eternel"
    PERFORMER "Cali"
    REM COMPOSER ""
    ISRC FR4071300250
    INDEX 01 00:00:00
FILE "04 - Ce soir je te laisse partir.wav" WAVE
  TRACK 04 AUDIO
    TITLE "Ce soir je te laisse partir"
    PERFORMER "Cali"
    REM COMPOSER ""
    ISRC FR4071300260
    INDEX 01 00:00:00
FILE "05 - Venez me chercher.wav" WAVE
  TRACK 05 AUDIO
    TITLE "Venez me chercher"
    PERFORMER "Cali"
    REM COMPOSER ""
    ISRC FR4071300270
    INDEX 01 00:00:00
FILE "06 - Tu me manques tellement.wav" WAVE
  TRACK 06 AUDIO
    TITLE "Tu me manques tellement"
    PERFORMER "Cali"
    REM COMPOSER ""
    ISRC FR4071300280
    INDEX 01 00:00:00
FILE "07 - Comme j'etais en vie.wav" WAVE
  TRACK 07 AUDIO
    TITLE "Comme j'etais en vie"
    PERFORMER "Cali"
    REM COMPOSER ""
    ISRC FR4071300290
    INDEX 01 00:00:00
FILE "08 - Qui se soucie de moi.wav" WAVE
  TRACK 08 AUDIO
    TITLE "Qui se soucie de moi"
    PERFORMER "Cali"
    REM COMPOSER ""
    ISRC FR4071300300
    INDEX 01 00:00:00
FILE "09 - Putain de vie.wav" WAVE
  TRACK 09 AUDIO
    TITLE "Putain de vie"
    PERFORMER "Cali"
    REM COMPOSER ""
    ISRC FR4071300310
    INDEX 01 00:00:00
FILE "10 - Je sais ta vie.wav" WAVE
  TRACK 10 AUDIO
    TITLE "Je sais ta vie"
    PERFORMER "Cali"
    REM COMPOSER ""
    ISRC FR4071300320
    INDEX 01 00:00:00
FILE "11 - Cantona.wav" WAVE
  TRACK 11 AUDIO
    TITLE "Cantona"
    PERFORMER "Cali"
    REM COMPOSER ""
    ISRC FR4071300330
    INDEX 01 00:00:00
FILE "12 - Mon ami.wav" WAVE
  TRACK 12 AUDIO
    TITLE "Mon ami"
    PERFORMER "Cali"
    REM COMPOSER ""
    ISRC FR4071300340
    INDEX 01 00:00:00
FILE "13 - Amour m'a tuer.wav" WAVE
  TRACK 13 AUDIO
    TITLE "Amour m'a tuer"
    PERFORMER "Cali"
    REM COMPOSER ""
    ISRC FR4071300350
    INDEX 01 00:00:00
FILE "14 - Giuseppe et Maria.wav" WAVE
  TRACK 14 AUDIO
    TITLE "Giuseppe et Maria"
    PERFORMER "Cali"
    REM COMPOSER ""
    ISRC FR4071300360
    INDEX 01 00:00:00
Код:
REM GENRE Chanson
REM DATE 2013
REM DISCID AD10780E
REM COMMENT "ExactAudioCopy v1.2"
CATALOG 3596972850226
PERFORMER "Cali"
TITLE "La Vie Cowboy (disc 3)"
REM COMPOSER ""
FILE "01 - Ma douleur.wav" WAVE
  TRACK 01 AUDIO
    TITLE "Ma douleur"
    PERFORMER "Cali"
    REM COMPOSER ""
    ISRC FR4071300370
    INDEX 01 00:00:00
FILE "02 - Mille ans d'ennui.wav" WAVE
  TRACK 02 AUDIO
    TITLE "Mille ans d'ennui"
    PERFORMER "Cali"
    REM COMPOSER ""
    ISRC FR4071300380
    INDEX 01 00:00:00
FILE "03 - Une femme se repose.wav" WAVE
  TRACK 03 AUDIO
    TITLE "Une femme se repose"
    PERFORMER "Cali"
    REM COMPOSER ""
    ISRC FR4071300390
    INDEX 01 00:00:00
FILE "04 - La grotte des amoureux.wav" WAVE
  TRACK 04 AUDIO
    TITLE "La grotte des amoureux"
    PERFORMER "Cali"
    REM COMPOSER ""
    ISRC FR4071300400
    INDEX 01 00:00:00
FILE "05 - Mes vieux cingles.wav" WAVE
  TRACK 05 AUDIO
    TITLE "Mes vieux cingles"
    PERFORMER "Cali"
    REM COMPOSER ""
    ISRC FR4071300410
    INDEX 01 00:00:00
  TRACK 06 AUDIO
    TITLE "Pablito"
    PERFORMER "Cali"
    REM COMPOSER ""
    ISRC FR4071300420
    INDEX 00 02:57:60
FILE "06 - Pablito.wav" WAVE
    INDEX 01 00:00:00
FILE "07 - Je m'en vais.wav" WAVE
  TRACK 07 AUDIO
    TITLE "Je m'en vais"
    PERFORMER "Cali"
    REM COMPOSER ""
    ISRC FR4071300430
    INDEX 01 00:00:00
FILE "08 - Dolorosa.wav" WAVE
  TRACK 08 AUDIO
    TITLE "Dolorosa"
    PERFORMER "Cali"
    REM COMPOSER ""
    ISRC FR4071300440
    INDEX 01 00:00:00
FILE "09 - L'espoir.wav" WAVE
  TRACK 09 AUDIO
    TITLE "L'espoir"
    PERFORMER "Cali"
    REM COMPOSER ""
    ISRC FR4071300450
    INDEX 01 00:00:00
FILE "10 - Sois sanctifie.wav" WAVE
  TRACK 10 AUDIO
    TITLE "Sois sanctifie"
    PERFORMER "Cali"
    REM COMPOSER ""
    ISRC FR4071300460
    INDEX 01 00:00:00
FILE "11 - Je reve de voir l'ete.wav" WAVE
  TRACK 11 AUDIO
    TITLE "Je reve de voir l'ete"
    PERFORMER "Cali"
    REM COMPOSER ""
    ISRC FR4071300470
    INDEX 01 00:00:00
FILE "12 - C'est quand le bonheur.wav" WAVE
  TRACK 12 AUDIO
    TITLE "C'est quand le bonheur ?"
    PERFORMER "Cali"
    REM COMPOSER ""
    ISRC FR4071300480
    INDEX 01 00:00:00
FILE "13 - Mille coeurs debout.wav" WAVE
  TRACK 13 AUDIO
    TITLE "Mille coeurs debout"
    PERFORMER "Cali"
    REM COMPOSER ""
    ISRC FR4071300490
    INDEX 01 00:00:00
  TRACK 14 AUDIO
    TITLE "Happy end"
    PERFORMER "Cali"
    REM COMPOSER ""
    ISRC FR4071300500
    INDEX 00 05:42:46
FILE "14 - Happy end.wav" WAVE
    INDEX 01 00:00:00
Cali (Bruno Caliciuri) - французский певец, композитор, автор песен.
Товарищи франкофоны и франкофонки! Искренне поздравляю. На вашей улице праздник. Увядающая Франция подарила миру отличного, просто отличного чувачка. Еще 10 лет назад, а я пропустил.
Парень, между прочим, с непростой судьбой. "Свою музыкальную карьеру начал в 14 лет с участия в группе "Pénétration anale", из-за названия которого юного музыканта исключили из лицея". Надо посоветовать нашим старшеклассникам создать группу со схожим названием. Интересно, как их "репрессирует" школьное начальство? Мне кажется, что у нас ограничатся строгим разговором в директорской.
Про эту песню пишут так: "Радиостанции быстро принялись крутить песню "C'est Quand Le Bonheur ?", превратив её в общий гимн разочаровавшихся и утративших иллюзии тридцатилетних".
(с) Лангобард ЖЖ (langobard) 2012-10-25
http://www.calimusic.fr
Правила, инструкции, FAQ!!!
Торрент  Добавлен [26 мар 2019, 19:46] Скачать торрент Магнет ссылка
Скачать торрент
[ Размер 30.01 КБ / Просмотров 1 ]

Статус
Проверен 
 
Размер  1.26 ГБ
Приватный: Нет (DHT включён)
.torrent скачан  0
 


     Отправить личное сообщение
   
Страница 1 из 1
Показать сообщения за:  Поле сортировки  
Начать новую тему Ответить на тему


Сейчас этот форум просматривают: нет зарегистрированных пользователей и гости: 0


Вы не можете начинать темы
Вы не можете отвечать на сообщения
Вы не можете редактировать свои сообщения
Вы не можете удалять свои сообщения
Вы не можете добавлять вложения

Перейти:  
cron