Начать новую тему Ответить на тему
Статистика раздачи
Размер: 307.6 МБ | Добавлен: 01 янв 2020, 22:44 | Скачали: 0
Сидеров: 0  [0 байт/сек]    Личеров: 0  [0 байт/сек]
Пред. тема | След. тема 

Автор
Сообщение

СообщениеДобавлено: 01 янв 2020, 22:44 

Ответить с цитатой 

Nicolas Peyrac: Tempête sur Ouessant (1991)
Жанр: Chanson, Pop
Страна-производитель диска: France
Год издания cd: 1993
Издатель (лейбл): WMD / Mad France
Номер по каталогу: CDV 362015
Аудиокодек: FLAC (*.flac)
Тип рипа: tracks+.cue
Битрейт аудио: lossless
Продолжительность: 00:55:18
Источник (релизер): рип мой. CD тоже.
Наличие сканов в содержимом раздачи: нет, под спойлером есть фото
Треклист:
01. Tempête sur Ouessant (4:06)
02. Ceux qui nous aiment (5:03)
03. Tout ce que j 'ai vu (6:06)
04. Tes incertitudes (3:11)
05. Pas d' sorties (5:09)
06. Crie (4:39)
07. Love you quand même (3:36)
08. Fais pas comme moi (4:54)
09. Ces mots qu'j'écris (4:01)
10. J' regrette rien (4:31)
11. J 'vous aimais (4:37)
12. Revenir pourqoi faire (5:25)
Код:
Exact Audio Copy V1.0 beta 1 from 15. November 2010
EAC extraction logfile from 19. May 2012, 15:53
Nicolas Peyrac / Tempete sur Ouessant
Used drive  : Optiarc DVD RW AD-7200A   Adapter: 0  ID: 0
Read mode               : Secure
Utilize accurate stream : Yes
Defeat audio cache      : Yes
Make use of C2 pointers : No
Read offset correction                      : 48
Overread into Lead-In and Lead-Out          : No
Fill up missing offset samples with silence : Yes
Delete leading and trailing silent blocks   : No
Null samples used in CRC calculations       : Yes
Used interface                              : Native Win32 interface for Win NT & 2000
Gap handling                                : Appended to previous track
Used output format              : User Defined Encoder
Selected bitrate                : 768 kBit/s
Quality                         : High
Add ID3 tag                     : No
Command line compressor         : C:\Program Files\Exact Audio Copy\Flac\flac.exe
Additional command line options : -8 -V -T "ARTIST=%a" -T "TITLE=%t" -T "ALBUM=%g" -T "DATE=%y" -T "TRACKNUMBER=%n" -T "TOTALTRACKS=%x" -T "GENRE=%m" -T "ALBUMARTIST=%v" -T "ALBUM ARTIST=%v" -T "COMMENT=EAC Secure Mode, Test & Copy, AccurateRip, FLAC -8" %s
TOC of the extracted CD
     Track |   Start  |  Length  | Start sector | End sector
    ---------------------------------------------------------
        1  |  0:00.32 |  4:06.15 |        32    |    18496
        2  |  4:06.47 |  5:03.33 |     18497    |    41254
        3  |  9:10.05 |  6:06.10 |     41255    |    68714
        4  | 15:16.15 |  3:10.65 |     68715    |    83029
        5  | 18:27.05 |  5:08.62 |     83030    |   106191
        6  | 23:35.67 |  4:38.58 |    106192    |   127099
        7  | 28:14.50 |  3:35.57 |    127100    |   143281
        8  | 31:50.32 |  4:53.58 |    143282    |   165314
        9  | 36:44.15 |  4:00.72 |    165315    |   183386
       10  | 40:45.12 |  4:31.33 |    183387    |   203744
       11  | 45:16.45 |  4:36.42 |    203745    |   224486
       12  | 49:53.12 |  5:25.25 |    224487    |   248886
Track  1
     Filename E:\Nicolas Peyrac - Tempete sur Ouessant (1991) [FLAC] {WMD, CDV 362015, France, 1993}\01 - Tempete sur Ouessant.wav
     Pre-gap length  0:00:02.42
     Peak level 100.0 %
     Extraction speed 2.3 X
     Track quality 100.0 %
     Test CRC 822EE904
     Copy CRC 822EE904
     Track not present in AccurateRip database
     Copy OK
Track  2
     Filename E:\Nicolas Peyrac - Tempete sur Ouessant (1991) [FLAC] {WMD, CDV 362015, France, 1993}\02 - Ceux qui nous aiment.wav
     Pre-gap length  0:00:01.49
     Peak level 50.1 %
     Extraction speed 2.6 X
     Track quality 100.0 %
     Test CRC 256C0AD9
     Copy CRC 256C0AD9
     Track not present in AccurateRip database
     Copy OK
Track  3
     Filename E:\Nicolas Peyrac - Tempete sur Ouessant (1991) [FLAC] {WMD, CDV 362015, France, 1993}\03 - Tout ce que j 'ai vu.wav
     Pre-gap length  0:00:00.80
     Peak level 100.0 %
     Extraction speed 3.0 X
     Track quality 100.0 %
     Test CRC 6275E310
     Copy CRC 6275E310
     Track not present in AccurateRip database
     Copy OK
Track  4
     Filename E:\Nicolas Peyrac - Tempete sur Ouessant (1991) [FLAC] {WMD, CDV 362015, France, 1993}\04 - Tes incertitudes.wav
     Pre-gap length  0:00:01.70
     Peak level 89.7 %
     Extraction speed 3.0 X
     Track quality 100.0 %
     Test CRC 257F22BD
     Copy CRC 257F22BD
     Track not present in AccurateRip database
     Copy OK
Track  5
     Filename E:\Nicolas Peyrac - Tempete sur Ouessant (1991) [FLAC] {WMD, CDV 362015, France, 1993}\05 - Pas d' sorties.wav
     Suspicious position 0:01:03
     Peak level 97.7 %
     Extraction speed 1.5 X
     Track quality 99.7 %
     Test CRC 80887BE9
     Copy CRC BADA3E28
     Track not present in AccurateRip database
     Copy finished
Track  6
     Filename E:\Nicolas Peyrac - Tempete sur Ouessant (1991) [FLAC] {WMD, CDV 362015, France, 1993}\06 - Crie.wav
     Peak level 100.0 %
     Extraction speed 3.6 X
     Track quality 100.0 %
     Test CRC 66598381
     Copy CRC 66598381
     Track not present in AccurateRip database
     Copy OK
Track  7
     Filename E:\Nicolas Peyrac - Tempete sur Ouessant (1991) [FLAC] {WMD, CDV 362015, France, 1993}\07 - Love you quand meme.wav
     Pre-gap length  0:00:01.04
     Peak level 69.2 %
     Extraction speed 3.6 X
     Track quality 100.0 %
     Test CRC 79EFA740
     Copy CRC 79EFA740
     Track not present in AccurateRip database
     Copy OK
Track  8
     Filename E:\Nicolas Peyrac - Tempete sur Ouessant (1991) [FLAC] {WMD, CDV 362015, France, 1993}\08 - Fais pas comme moi.wav
     Peak level 97.9 %
     Extraction speed 3.9 X
     Track quality 100.0 %
     Test CRC 0864E4BD
     Copy CRC 0864E4BD
     Track not present in AccurateRip database
     Copy OK
Track  9
     Filename E:\Nicolas Peyrac - Tempete sur Ouessant (1991) [FLAC] {WMD, CDV 362015, France, 1993}\09 - Ces mots que j 'ecris.wav
     Peak level 76.4 %
     Extraction speed 4.0 X
     Track quality 100.0 %
     Test CRC 81F37BE0
     Copy CRC 81F37BE0
     Track not present in AccurateRip database
     Copy OK
Track 10
     Filename E:\Nicolas Peyrac - Tempete sur Ouessant (1991) [FLAC] {WMD, CDV 362015, France, 1993}\10 - J' regrette rien.wav
     Pre-gap length  0:00:01.02
     Peak level 100.0 %
     Extraction speed 4.3 X
     Track quality 100.0 %
     Test CRC B080F29C
     Copy CRC B080F29C
     Track not present in AccurateRip database
     Copy OK
Track 11
     Filename E:\Nicolas Peyrac - Tempete sur Ouessant (1991) [FLAC] {WMD, CDV 362015, France, 1993}\11 - J 'vous aimais.wav
     Peak level 100.0 %
     Extraction speed 4.4 X
     Track quality 100.0 %
     Test CRC 25E570F6
     Copy CRC 25E570F6
     Track not present in AccurateRip database
     Copy OK
Track 12
     Filename E:\Nicolas Peyrac - Tempete sur Ouessant (1991) [FLAC] {WMD, CDV 362015, France, 1993}\12 - Revenir pourqoi faire.wav
     Peak level 81.0 %
     Extraction speed 4.7 X
     Track quality 100.0 %
     Test CRC 28B40F2B
     Copy CRC 28B40F2B
     Track not present in AccurateRip database
     Copy OK
None of the tracks are present in the AccurateRip database
There were errors
End of status report
==== Log checksum 3651A24232A3875A1159B175A6327109694BFD700E78BAFF1393746752D1974F ====
Код:
REM GENRE Chanson
REM DATE 1991
REM DISCID AF0CF60C
REM COMMENT "ExactAudioCopy v1.0b1"
PERFORMER "Nicolas Peyrac"
TITLE "Tempete sur Ouessant"
FILE "01 - Tempete sur Ouessant.wav" WAVE
  TRACK 01 AUDIO
    TITLE "Tempete sur Ouessant"
    PERFORMER "Nicolas Peyrac"
    PREGAP 00:00:32
    INDEX 01 00:00:00
  TRACK 02 AUDIO
    TITLE "Ceux qui nous aiment"
    PERFORMER "Nicolas Peyrac"
    INDEX 00 04:04:53
FILE "02 - Ceux qui nous aiment.wav" WAVE
    INDEX 01 00:00:00
  TRACK 03 AUDIO
    TITLE "Tout ce que j 'ai vu"
    PERFORMER "Nicolas Peyrac"
    INDEX 00 05:02:48
FILE "03 - Tout ce que j 'ai vu.wav" WAVE
    INDEX 01 00:00:00
  TRACK 04 AUDIO
    TITLE "Tes incertitudes"
    PERFORMER "Nicolas Peyrac"
    INDEX 00 06:04:32
FILE "04 - Tes incertitudes.wav" WAVE
    INDEX 01 00:00:00
FILE "05 - Pas d' sorties.wav" WAVE
  TRACK 05 AUDIO
    TITLE "Pas d' sorties"
    PERFORMER "Nicolas Peyrac"
    INDEX 01 00:00:00
FILE "06 - Crie.wav" WAVE
  TRACK 06 AUDIO
    TITLE "Crie"
    PERFORMER "Nicolas Peyrac"
    INDEX 01 00:00:00
  TRACK 07 AUDIO
    TITLE "Love you quand meme"
    PERFORMER "Nicolas Peyrac"
    INDEX 00 04:37:55
FILE "07 - Love you quand meme.wav" WAVE
    INDEX 01 00:00:00
FILE "08 - Fais pas comme moi.wav" WAVE
  TRACK 08 AUDIO
    TITLE "Fais pas comme moi"
    PERFORMER "Nicolas Peyrac"
    INDEX 01 00:00:00
FILE "09 - Ces mots que j 'ecris.wav" WAVE
  TRACK 09 AUDIO
    TITLE "Ces mots que j 'ecris"
    PERFORMER "Nicolas Peyrac"
    INDEX 01 00:00:00
  TRACK 10 AUDIO
    TITLE "J' regrette rien"
    PERFORMER "Nicolas Peyrac"
    INDEX 00 03:59:70
FILE "10 - J' regrette rien.wav" WAVE
    INDEX 01 00:00:00
FILE "11 - J 'vous aimais.wav" WAVE
  TRACK 11 AUDIO
    TITLE "J 'vous aimais"
    PERFORMER "Nicolas Peyrac"
    INDEX 01 00:00:00
FILE "12 - Revenir pourqoi faire.wav" WAVE
  TRACK 12 AUDIO
    TITLE "Revenir pourqoi faire"
    PERFORMER "Nicolas Peyrac"
    INDEX 01 00:00:00
1993 PAS D’SORTIE
C’est en pleine effervescence de Et même qu’une fois de plus mes passions me jouent des tours et que ma vie personnelle devient assez spéciale, c’est le moins qu’on puisse dire, mes proches en parleraient mieux que moi, ce sont eux qui ont vu assez clair pour m’aider à changer d’horizon, c’est à ce moment là que quelquepart dans ma tête germe le projet de partir traîner mes guêtres à Montréal… Parcequ’encore une fois, l’album qui voit le jour en 1993 est saboté par l’inexistante maison de disque censée s’en occuper, je déciderai en juin de prendre mes cliques et mes claques et d’aller voir au Québec si le ciel est plus bleu et l’air un peu plus respirable… L’enregistrement, l’année précédente, de Tempête sur Ouessant, c’est le titre du disque où se trouve Pas d’sortie, se passera aux Studios Davout, encore une fois avec Olivier Kowalski, Philippe Valdes et l’équipe de l’album J’t’aimais trop j’t’aimerai tellement, mais même si Bruce Gaitsch est de nouveau venu de Los Angeles, l’ambiance n’est pas la même, d’abord parce que les chansons sont assez tristes voire désespérées, et ça, j’en suis quand même le seul responsable, et puis je ne sens pas derrière moi l’énergie étonnante qu’il y avait sur le disque de 1989… Encore une fois, je pense maintenant avec le recul que c’était pour beaucoup lié aux chansons et que sûrement dans ma tête j’étais déjà ailleurs… Le titre Pas d’sortie a une ambiance très Tom Petty parcequ’avec Kowalski on adorait ses albums, mais quand je réécoute ma voix, elle est quand même infiniment triste et sans énergie positive… Ça restera quand même un disque que j’aimerai à jamais profondément pour deux bonnes raisons, c’est le dernier que je ferai avec Sebastian Santa Maria qui devait disparaître quelques années plus tard! C’est aussi pendant l’enregistrement de ce disque là que j’ai rencontré une certaine brune aux yeux bleus, mais chuuutttt!
Правила, инструкции, FAQ!!!
Торрент  Добавлен [01 янв 2020, 22:44] Скачать торрент Магнет ссылка
Скачать торрент
[ Размер 13.45 КБ / Просмотров 1 ]

Статус
Проверен 
 
Размер  307.6 МБ
Приватный: Нет (DHT включён)
.torrent скачан  0
 


     Отправить личное сообщение
   
Страница 1 из 1
Показать сообщения за:  Поле сортировки  
Начать новую тему Ответить на тему


Сейчас этот форум просматривают: нет зарегистрированных пользователей и гости: 0


Вы не можете начинать темы
Вы не можете отвечать на сообщения
Вы не можете редактировать свои сообщения
Вы не можете удалять свои сообщения
Вы не можете добавлять вложения

Перейти:  
cron