Начать новую тему Ответить на тему
Статистика раздачи
Размер: 209.28 МБ | Добавлен: 01 янв 2020, 23:09 | Скачали: 0
Сидеров: 2  [0 байт/сек]    Личеров: 1  [0 байт/сек]
Пред. тема | След. тема 

Автор
Сообщение

СообщениеДобавлено: 01 янв 2020, 23:09 

Ответить с цитатой 

Mouloudji / Revisite ses plus grands succès 1972
Жанр: Chanson, Pop
Носитель: WEB
Год издания: 2014
Издатель (лейбл): Mercury Music Group
Страна исполнителя (группы): France
Аудиокодек: FLAC (*.flac)
Тип рипа: tracks
Битрейт аудио: lossless
Продолжительность: 00:36:08
Источник (релизер): 7digital
Наличие сканов в содержимом раздачи: Front
Треклист:
01. Le déserteur (Version 1972)
02. La complainte de la butte
03. Rue de Lappe
04. Province blues
05. Ballade en si bémol
06. Mon pot' le gitan
07. Comme un p'tit coquelicot
08. Un jour tu verras
09. Si tu t'imagines
10. La complainte des infideles
11. Le mal de Paris
12. Chanson de Tessa
Код:
foobar2000 1.1.10 / Dynamic Range Meter 1.1.1
log date: 2018-01-04 22:21:50
--------------------------------------------------------------------------------
Analyzed: Mouloudji / Revisite ses plus grands succès 1972
--------------------------------------------------------------------------------
DR         Peak         RMS     Duration Track
--------------------------------------------------------------------------------
DR10      -0.42 dB   -15.00 dB      2:56 ?-Le déserteur (Version 1972)
DR11      -2.25 dB   -16.26 dB      2:51 ?-La complainte de la butte
DR12      -0.93 dB   -15.74 dB      3:18 ?-Rue de Lappe
DR11      -2.67 dB   -17.66 dB      2:41 ?-Province blues
DR11      -2.53 dB   -16.09 dB      2:51 ?-Ballade en si bémol
DR10      -1.33 dB   -14.82 dB      3:21 ?-Mon pot' le gitan
DR11      -3.23 dB   -19.02 dB      3:35 ?-Comme un p'tit coquelicot
DR10      -2.75 dB   -16.02 dB      2:53 ?-Un jour tu verras
DR12      -1.89 dB   -17.47 dB      3:09 ?-Si tu t'imagines
DR11      -1.99 dB   -15.14 dB      3:25 ?-La complainte des infideles
DR11      -1.87 dB   -14.98 dB      2:50 ?-Le mal de Paris
DR10      -3.97 dB   -17.33 dB      2:18 ?-Chanson de Tessa
--------------------------------------------------------------------------------
Number of tracks:  12
Official DR value: DR11
Samplerate:        44100 Hz
Channels:          2
Bits per sample:   16
Bitrate:           784 kbps
Codec:             FLAC
================================================================================
Код:
-----------------------
DON'T MODIFY THIS FILE
-----------------------
PERFORMER: auCDtect Task Manager, ver. 1.5.1RC4 build 1.5.1.5
Copyright (c) 2008-2010 y-soft. All rights reserved
[url=http://y-soft.org]http://y-soft.org[/url]
ANALYZER: auCDtect: CD records authenticity detector, version 0.8.2
Copyright (c) 2004 Oleg Berngardt. All rights reserved.
Copyright (c) 2004 Alexander Djourik. All rights reserved.
FILE: 12. Chanson de Tessa.flac
  Size: 13729492 Hash: 95ACBD435E9A08D21D001F67B5BC841D Accuracy: -m0
  Conclusion: CDDA 100%
  Signature: BFBBE11662CE9363705C9ABB8B06D5138A757059
FILE: 11. Le mal de Paris.flac
  Size: 17790357 Hash: 12ACDF652D8D79B158D77489EAECC23D Accuracy: -m0
  Conclusion: CDDA 100%
  Signature: D8F85C3F3371302F92476265422388F2917E202D
FILE: 10. La complainte des infideles.flac
  Size: 21065858 Hash: C4061930A245BB2DC1E5E08A12878E73 Accuracy: -m0
  Conclusion: CDDA 100%
  Signature: E787F9154CA749A910675DA52E1D1E4B021BCC40
FILE: 09. Si tu t'imagines.flac
  Size: 18907146 Hash: 86BD819D819D725B68FCA649F2AE19DF Accuracy: -m0
  Conclusion: CDDA 100%
  Signature: 907E584B1CAC671C1E0CB7934EC9AE6E0D899B06
FILE: 08. Un jour tu verras.flac
  Size: 16833189 Hash: 9E98CF1538041E5ABF14CC2361F46CD8 Accuracy: -m0
  Conclusion: CDDA 100%
  Signature: C1F93F50790AF6F4FDB85DF892DAD4689BDF158B
FILE: 07. Comme un p'tit coquelicot.flac
  Size: 19873834 Hash: 5542676A3B1B45F26588C8951605AF68 Accuracy: -m0
  Conclusion: CDDA 100%
  Signature: 5B372210940844726C53C2A866B86B97DFEE8967
FILE: 06. Mon pot' le gitan.flac
  Size: 21837871 Hash: 12B0B6324BF5A5C0ED3DB64AD5B51689 Accuracy: -m0
  Conclusion: CDDA 100%
  Signature: E0297DBB0F60471FBC98BB5C99E5D5E7879A3A80
FILE: 05. Ballade en si bémol.flac
  Size: 16786865 Hash: AC3B0F8B41C2A9FB71194C8F37574D8E Accuracy: -m0
  Conclusion: CDDA 100%
  Signature: 7B0C440436BC8D80AFA783D740978183C8E3601B
FILE: 04. Province blues.flac
  Size: 15882597 Hash: D575D025BBA620AA933C5B9233778879 Accuracy: -m0
  Conclusion: CDDA 100%
  Signature: 05F48586202717652783456D47CB7A2FABA42BED
FILE: 03. Rue de Lappe.flac
  Size: 21879007 Hash: D028A33F5C7E1E6D5A2196FD8B557F88 Accuracy: -m0
  Conclusion: CDDA 100%
  Signature: 60284A2B4653BFCD9AD0CED21044117373B09532
FILE: 02. La complainte de la butte.flac
  Size: 16847266 Hash: E0B623A3E5107E3FF4358871A7D70460 Accuracy: -m0
  Conclusion: CDDA 100%
  Signature: 37DF9E2E68ED8261D749B0567AA368BB323DDD6C
FILE: 01. Le déserteur (Version 1972).flac
  Size: 17771793 Hash: DE6AD19BC3DEA083522C773C38270D89 Accuracy: -m0
  Conclusion: CDDA 99%
  Signature: C8A74551D835FED8827F0D109090B9DA417975F8
Правила, инструкции, FAQ!!!
Торрент  Добавлен [01 янв 2020, 23:09] Скачать торрент Магнет ссылка
Скачать торрент
[ Размер 17.64 КБ / Просмотров 6 ]

Статус
Проверен 
 
Размер  209.28 МБ
Приватный: Нет (DHT включён)
.torrent скачан  0
 


     Отправить личное сообщение
   
Страница 1 из 1
Показать сообщения за:  Поле сортировки  
Начать новую тему Ответить на тему


Сейчас этот форум просматривают: нет зарегистрированных пользователей и гости: 0


Вы не можете начинать темы
Вы не можете отвечать на сообщения
Вы не можете редактировать свои сообщения
Вы не можете удалять свои сообщения
Вы не можете добавлять вложения

Перейти:  
cron