Начать новую тему Ответить на тему
Статистика раздачи
Размер: 321.23 МБ | Добавлен: 01 янв 2020, 23:04 | Скачали: 1
Сидеров: 0  [0 байт/сек]    Личеров: 0  [0 байт/сек]
Пред. тема | След. тема 

Автор
Сообщение

СообщениеДобавлено: 01 янв 2020, 23:04 

Ответить с цитатой 

Marija Naumova

Ma voix, ma voie
Жанр: Chanson, pop, jazz

Носитель: CD
Страна-производитель диска: Latvia
Год издания: 2001
Издатель (лейбл): Baltic Records Group
Номер по каталогу: BRG CD 114
Страна: Latvia, Riga
Аудиокодек: FLAC (*.flac)
Тип рипа: tracks+.cue
Битрейт аудио: lossless
Продолжительность: 00:44:54
Источник (релизер): Материал интернета
Наличие сканов в содержимом раздачи: да
.
.
.
.
.
.
Треклист:
.
01 - Sous Le Soleil Du Nord

02 - Ecris-moi
03 - Cher Ami
04 - Souviens-toi
05 - Je T'aime
06 - Aux Les Coins Du Vieux Riga
07 - Vide
08 - Salut, cheri!
09 - Jeanne La Rousse
10 - Juan
11 - Une Voix
#777Мария Наумова (латыш. Marija Naumova, 23 июня 1973 года, Рига) — латвийская певица русского происхождения, победившая под псевдонимом Marie N на конкурсе песни Евровидение в 2002 году.
Певица с 1994 года начала сотрудничать с композитором Раймондом Паулсом. В 1995 году приняла участие в телеконкурсе молодых талантов и была тепло принята зрителями. В 1998 году участвовала в концерте, посвященном 100-летию Дж. Гершвина, после чего приобрела известность в стране. В 1999 выпустила первый сольный альбом «До светлых слез», записанный на русском языке. Выпущенный в 2001 году альбом «Ieskaties acis» через две недели после выхода стал «золотым», а по истечении 11 месяцев — «платиновым». В том же году записала альбом на французском языке «Ma Voix, Ma Voie». Получила приз зрительских симпатий на конкурсе «Голос Азии».
В 2000 году впервые участвовала в национальном отборе к Евровидению, где заняла второе место. После неудачной попытки в следующем году, победила в отборочном туре, а затем и на самом конкурсе 2002 года с песней «I Wanna», музыку к которой Мария написала сама. Песня стала первой среди победителей конкурса, которая не была издана звукозаписывающими компаниями за пределами своей страны.
В ноябре того же года выпустила два новых альбома (один — на английском, второй — на латышском языке). Была ведущей конкурса Евровидение 2003 года, проходившего в Риге. В 2004 году исполнила главную партию в мюзикле «Звуки музыки». Также была признана лучшей исполнительницей заглавной роли в мюзикле «Сестра Керри».
В свой последний альбом «On my own» включила песни на латышском, английском, французском и португальском языках.
Получила юридическое образование в Латвийском университете. В 2005 году стала первым в Латвии Послом доброй воли ЮНИСЕФ.
В конце 2007 и в начале 2008 года Мария Наумова приняла участие в мюзикле, поставленном по мотивам романа Виктора Гюго «Отверженные». Мария играет роль Фантины.
Код:
Exact Audio Copy V1.0 beta 3 from 29. August 2011
EAC extraction logfile from 5. February 2014, 19:17
Maria Naumova / Ma Voix, Ma Voie
Used drive  : PLEXTOR DVDR   PX-716A   Adapter: 11  ID: 1
Read mode               : Secure
Utilize accurate stream : Yes
Defeat audio cache      : Yes
Make use of C2 pointers : No
Read offset correction                      : 30
Overread into Lead-In and Lead-Out          : No
Fill up missing offset samples with silence : Yes
Delete leading and trailing silent blocks   : No
Null samples used in CRC calculations       : Yes
Used interface                              : Installed external ASPI interface
Gap handling                                : Appended to previous track
Used output format              : User Defined Encoder
Selected bitrate                : 128 kBit/s
Quality                         : High
Add ID3 tag                     : No
Command line compressor         : C:\Program Files\Exact Audio Copy\Flac\flac.exe
Additional command line options : -V -8 -T "Date=%year%" -T "Genre=%genre%" %source%
TOC of the extracted CD
     Track |   Start  |  Length  | Start sector | End sector
    ---------------------------------------------------------
        1  |  0:00.00 |  3:52.25 |         0    |    17424
        2  |  3:52.25 |  4:22.32 |     17425    |    37106
        3  |  8:14.57 |  3:04.07 |     37107    |    50913
        4  | 11:18.64 |  4:53.23 |     50914    |    72911
        5  | 16:12.12 |  4:24.22 |     72912    |    92733
        6  | 20:36.34 |  4:02.34 |     92734    |   110917
        7  | 24:38.68 |  4:27.62 |    110918    |   131004
        8  | 29:06.55 |  3:16.27 |    131005    |   145731
        9  | 32:23.07 |  4:34.28 |    145732    |   166309
       10  | 36:57.35 |  3:34.70 |    166310    |   182429
       11  | 40:32.30 |  4:21.01 |    182430    |   202005
Track  1
     Filename E:\MUZON\Maria Naumova\Maria.Naumova_Ma.Voix,Ma.Voie_2001\01 Sous Le Soleil Du Nord.wav
     Pre-gap length  0:00:02.00
     Peak level 96.5 %
     Extraction speed 8.2 X
     Track quality 100.0 %
     Test CRC 0DEBF5A3
     Copy CRC 0DEBF5A3
     Accurately ripped (confidence 1)  [BFC766A0]  (AR v2)
     Copy OK
Track  2
     Filename E:\MUZON\Maria Naumova\Maria.Naumova_Ma.Voix,Ma.Voie_2001\02 Ecris-moi.wav
     Pre-gap length  0:00:02.00
     Peak level 96.5 %
     Extraction speed 9.2 X
     Track quality 100.0 %
     Test CRC D583B054
     Copy CRC D583B054
     Accurately ripped (confidence 1)  [5D1BB940]  (AR v2)
     Copy OK
Track  3
     Filename E:\MUZON\Maria Naumova\Maria.Naumova_Ma.Voix,Ma.Voie_2001\03 Cher Ami.wav
     Pre-gap length  0:00:02.00
     Peak level 96.4 %
     Extraction speed 9.8 X
     Track quality 100.0 %
     Test CRC D47A1BF7
     Copy CRC D47A1BF7
     Accurately ripped (confidence 1)  [CEF4277C]  (AR v2)
     Copy OK
Track  4
     Filename E:\MUZON\Maria Naumova\Maria.Naumova_Ma.Voix,Ma.Voie_2001\04 Souviens-toi.wav
     Pre-gap length  0:00:02.00
     Peak level 96.5 %
     Extraction speed 10.7 X
     Track quality 100.0 %
     Test CRC 6A0A7B99
     Copy CRC 6A0A7B99
     Accurately ripped (confidence 1)  [E1337A13]  (AR v2)
     Copy OK
Track  5
     Filename E:\MUZON\Maria Naumova\Maria.Naumova_Ma.Voix,Ma.Voie_2001\05 Je T'aime.wav
     Pre-gap length  0:00:02.00
     Peak level 96.4 %
     Extraction speed 10.9 X
     Track quality 99.9 %
     Test CRC 8F3B8095
     Copy CRC 8F3B8095
     Accurately ripped (confidence 1)  [99911F18]  (AR v2)
     Copy OK
Track  6
     Filename E:\MUZON\Maria Naumova\Maria.Naumova_Ma.Voix,Ma.Voie_2001\06 Aux Les Coins Du Vieux Riga.wav
     Pre-gap length  0:00:02.00
     Peak level 96.5 %
     Extraction speed 12.2 X
     Track quality 100.0 %
     Test CRC 353BC9DA
     Copy CRC 353BC9DA
     Accurately ripped (confidence 1)  [E5691EDB]  (AR v2)
     Copy OK
Track  7
     Filename E:\MUZON\Maria Naumova\Maria.Naumova_Ma.Voix,Ma.Voie_2001\07 Vide.wav
     Pre-gap length  0:00:02.00
     Peak level 95.9 %
     Extraction speed 12.9 X
     Track quality 100.0 %
     Test CRC 48AD3219
     Copy CRC 48AD3219
     Accurately ripped (confidence 1)  [F36E1379]  (AR v2)
     Copy OK
Track  8
     Filename E:\MUZON\Maria Naumova\Maria.Naumova_Ma.Voix,Ma.Voie_2001\08 Salut, chéri!.wav
     Pre-gap length  0:00:02.00
     Peak level 95.9 %
     Extraction speed 13.1 X
     Track quality 100.0 %
     Test CRC 48AFE47B
     Copy CRC 48AFE47B
     Accurately ripped (confidence 1)  [EF0DEF00]  (AR v2)
     Copy OK
Track  9
     Filename E:\MUZON\Maria Naumova\Maria.Naumova_Ma.Voix,Ma.Voie_2001\09 Jeanne La Rousse.wav
     Pre-gap length  0:00:02.00
     Peak level 96.5 %
     Extraction speed 14.0 X
     Track quality 100.0 %
     Test CRC 0A518D36
     Copy CRC 0A518D36
     Accurately ripped (confidence 1)  [11CF7373]  (AR v2)
     Copy OK
Track 10
     Filename E:\MUZON\Maria Naumova\Maria.Naumova_Ma.Voix,Ma.Voie_2001\10 Juan.wav
     Pre-gap length  0:00:02.00
     Peak level 96.5 %
     Extraction speed 14.3 X
     Track quality 100.0 %
     Test CRC 5EF39DD9
     Copy CRC 5EF39DD9
     Accurately ripped (confidence 1)  [B1E3166C]  (AR v2)
     Copy OK
Track 11
     Filename E:\MUZON\Maria Naumova\Maria.Naumova_Ma.Voix,Ma.Voie_2001\11 Une Voix.wav
     Pre-gap length  0:00:02.00
     Peak level 96.5 %
     Extraction speed 14.8 X
     Track quality 100.0 %
     Test CRC CADA93B4
     Copy CRC CADA93B4
     Accurately ripped (confidence 1)  [6D94ACDB]  (AR v2)
     Copy OK
All tracks accurately ripped
No errors occurred
End of status report
==== Log checksum C28F9F1F8AECC942C2DB25091EB7B4097386621608262A55CFC4464E7C4122E5 ====
Код:
REM GENRE Chanson
REM DATE 2001
REM DISCID 9D0A850B
REM COMMENT "ExactAudioCopy v1.0b3"
PERFORMER "Maria Naumova"
TITLE "Ma Voix, Ma Voie"
FILE "01 Sous Le Soleil Du Nord.wav" WAVE
  TRACK 01 AUDIO
    TITLE "Sous Le Soleil Du Nord"
    PERFORMER "Maria Naumova"
    INDEX 01 00:00:00
  TRACK 02 AUDIO
    TITLE "Ecris-moi"
    PERFORMER "Maria Naumova"
    INDEX 00 03:50:25
FILE "02 Ecris-moi.wav" WAVE
    INDEX 01 00:00:00
  TRACK 03 AUDIO
    TITLE "Cher Ami"
    PERFORMER "Maria Naumova"
    INDEX 00 04:20:32
FILE "03 Cher Ami.wav" WAVE
    INDEX 01 00:00:00
  TRACK 04 AUDIO
    TITLE "Souviens-toi"
    PERFORMER "Maria Naumova"
    INDEX 00 03:02:07
FILE "04 Souviens-toi.wav" WAVE
    INDEX 01 00:00:00
  TRACK 05 AUDIO
    TITLE "Je T'aime"
    PERFORMER "Maria Naumova"
    INDEX 00 04:51:23
FILE "05 Je T'aime.wav" WAVE
    INDEX 01 00:00:00
  TRACK 06 AUDIO
    TITLE "Aux Les Coins Du Vieux Riga"
    PERFORMER "Maria Naumova"
    INDEX 00 04:22:22
FILE "06 Aux Les Coins Du Vieux Riga.wav" WAVE
    INDEX 01 00:00:00
  TRACK 07 AUDIO
    TITLE "Vide"
    PERFORMER "Maria Naumova"
    INDEX 00 04:00:34
FILE "07 Vide.wav" WAVE
    INDEX 01 00:00:00
  TRACK 08 AUDIO
    TITLE "Salut, cheri!"
    PERFORMER "Maria Naumova"
    INDEX 00 04:25:62
FILE "08 Salut, cheri!.wav" WAVE
    INDEX 01 00:00:00
  TRACK 09 AUDIO
    TITLE "Jeanne La Rousse"
    PERFORMER "Maria Naumova"
    INDEX 00 03:14:27
FILE "09 Jeanne La Rousse.wav" WAVE
    INDEX 01 00:00:00
  TRACK 10 AUDIO
    TITLE "Juan"
    PERFORMER "Maria Naumova"
    INDEX 00 04:32:28
FILE "10 Juan.wav" WAVE
    INDEX 01 00:00:00
  TRACK 11 AUDIO
    TITLE "Une Voix"
    PERFORMER "Maria Naumova"
    INDEX 00 03:32:70
FILE "11 Une Voix.wav" WAVE
    INDEX 01 00:00:00
Код:
-----------------------
DON'T MODIFY THIS FILE
-----------------------
PERFORMER: auCDtect Task Manager, ver. 1.5.1RC6 build 1.5.1.7
Copyright (c) 2008-2010 y-soft. All rights reserved
[url=http://y-soft.org]http://y-soft.org[/url]
ANALYZER: auCDtect: CD records authenticity detector, version 0.8.2
Copyright (c) 2004 Oleg Berngardt. All rights reserved.
Copyright (c) 2004 Alexander Djourik. All rights reserved.
FILE: 11 Une Voix.flac
  Size: 28204097 Hash: EB7E2BCB7D0C81717E3386636E3E5A42 Accuracy: -m0
  Conclusion: CDDA 100%
  Signature: 4CE530436FC18A47CEBDCE2558585C9EFD699806
FILE: 10 Juan.flac
  Size: 23868045 Hash: C271C5F7CB01081D83D1D073A73B48DD Accuracy: -m0
  Conclusion: CDDA 100%
  Signature: 205EE8A08EF4B235DD6A6265ADCB6005457E91BF
FILE: 09 Jeanne La Rousse.flac
  Size: 27971227 Hash: 8B4509278BF18AC7228B927D57AE0B35 Accuracy: -m0
  Conclusion: CDDA 100%
  Signature: FCB06CF78C3CF9E7769D45737EA506EAF814F0C6
FILE: 08 Salut, chéri!.flac
  Size: 20719518 Hash: 3A0F725A30F35AE17608C949DAEEBA62 Accuracy: -m0
  Conclusion: CDDA 100%
  Signature: A6CF12F22F1D70A4D8E05E9A5499E3461AEA662C
FILE: 07 Vide.flac
  Size: 27249641 Hash: 7E394ED0582AD874C97A42D1DFA48690 Accuracy: -m0
  Conclusion: CDDA 100%
  Signature: 0FC1412FE4BDA47B4D8736E6A44C8DE3972E2FAE
FILE: 06 Aux Les Coins Du Vieux Riga.flac
  Size: 26160811 Hash: EC7A2D8F27CAE9D9849E7860B9D812BB Accuracy: -m0
  Conclusion: CDDA 99%
  Signature: 55F6B032D078EE1B35D45AA65AAD3672FEF8E000
FILE: 05 Je T'aime.flac
  Size: 27583752 Hash: D7BA78388099E0A98D4B48D80F90FEF9 Accuracy: -m0
  Conclusion: CDDA 99%
  Signature: FFAE9096700F4E59FD11D8534061559FE1AA10BD
FILE: 04 Souviens-toi.flac
  Size: 30475736 Hash: 153F2C1BA96A6C6FF3AB6144928FA76C Accuracy: -m0
  Conclusion: CDDA 100%
  Signature: 62EA5B31DCA85C2301EBC60D8B7CDE227EA9C882
FILE: 03 Cher Ami.flac
  Size: 19880042 Hash: 82F371289A95EF3F0B6364929E3F3E95 Accuracy: -m0
  Conclusion: CDDA 99%
  Signature: 1496132EFE965961B458E9F99EDF340C44623021
FILE: 02 Ecris-moi.flac
  Size: 28862246 Hash: C15D8756C99AB3BD55F4EA5BFA43EDC2 Accuracy: -m0
  Conclusion: CDDA 100%
  Signature: C5E7A13F25F9A16B65DE27026C08BCA517A69CCD
FILE: 01 Sous Le Soleil Du Nord.flac
  Size: 25777272 Hash: 9468705752DB6C433CF1BA5622D5666A Accuracy: -m0
  Conclusion: CDDA 100%
  Signature: FD6584B7F10557B49312AC4F91933E62D2A33B9D
Прямые кликабельные ссылки на раздачи.
Direct clickable links to hand.






















Прямые кликабельные ссылки на раздачи.
Direct clickable links to hand.




























Прямые кликабельные ссылки на раздачи.
Direct clickable links to hand.
























Правила, инструкции, FAQ!!!
Торрент  Добавлен [01 янв 2020, 23:04] Скачать торрент Магнет ссылка
Скачать торрент
[ Размер 13.94 КБ / Просмотров 9 ]

Статус
Проверен 
 
Размер  321.23 МБ
Приватный: Нет (DHT включён)
.torrent скачан  1
 


     Отправить личное сообщение
   
Страница 1 из 1
Показать сообщения за:  Поле сортировки  
Начать новую тему Ответить на тему


Сейчас этот форум просматривают: нет зарегистрированных пользователей и гости: 0


Вы не можете начинать темы
Вы не можете отвечать на сообщения
Вы не можете редактировать свои сообщения
Вы не можете удалять свои сообщения
Вы не можете добавлять вложения

Перейти:  
cron