Начать новую тему Ответить на тему
Статистика раздачи
Размер: 209.21 МБ | Добавлен: 01 янв 2020, 22:44 | Скачали: 0
Сидеров: 0  [0 байт/сек]    Личеров: 0  [0 байт/сек]
Пред. тема | След. тема 

Автор
Сообщение

СообщениеДобавлено: 01 янв 2020, 22:44 

Ответить с цитатой 

Megan Barbera — Zigzag to the Sea
Жанр: Chanson, Pop, Folk, Rock
Страна-производитель диска: США
Год издания: 2010
Аудиокодек: FLAC (*.flac)
Тип рипа: tracks
Битрейт аудио: lossless
Продолжительность: 35:05.467 (92 851 080 samples)
Источник (релизер): bandcamp
Треклист:
01. Anywhere But Here
02. Can't Love Yourself
03. Wasted
04. Shallow Well
05. Happily Ever After
06. A Little Hokey Pokey
07. The Keeper
08. Like Wildfire
09. Zigzag to the Sea
Код:
-----------------------
DON'T MODIFY THIS FILE
-----------------------
PERFORMER: auCDtect Task Manager, ver. 1.6.0 RC1 build 1.6.0.1
Copyright (c) 2008-2010 y-soft. All rights reserved
[url=http://y-soft.org]http://y-soft.org[/url]
ANALYZER: auCDtect: CD records authenticity detector, version 0.8.2
Copyright (c) 2004 Oleg Berngardt. All rights reserved.
Copyright (c) 2004 Alexander Djourik. All rights reserved.
FILE: 06 A Little Hokey Pokey.flac
  Size: 19319176 Hash: 1186823476130D679729D10F3121A765 Accuracy: -m0
  Conclusion: CDDA 100%
  Signature: 9F0B33AB973BA6D11F1781481BC19CC96D2325A5
FILE: 05 Happily Ever After.flac
  Size: 30458949 Hash: 5E904A491F1CD7E325155AAACB6423E7 Accuracy: -m0
  Conclusion: CDDA 99%
  Signature: 25ED94FFBF7AE9B29FA2938E45B1D4CBA2EB0541
FILE: 04 Shallow Well.flac
  Size: 32504158 Hash: D09BBA473A76DE1D82D0BCA2EA83DCEC Accuracy: -m0
  Conclusion: CDDA 99%
  Signature: 4448D49AC28F3C6756EE6BADCFD8FACDC3F96416
FILE: 03 Wasted.flac
  Size: 21906327 Hash: 49C8D984AE55E394B8DCD71F7216336B Accuracy: -m0
  Conclusion: CDDA 100%
  Signature: CDC0A5691FA7B63BEB1AB8700F12B069F56235EF
FILE: 02 Can't Love Yourself.flac
  Size: 24711746 Hash: 54D463C0B47B4DC1612BA09AFBC4E4C2 Accuracy: -m0
  Conclusion: CDDA 100%
  Signature: 11236EFD8A5ACC1E430AAE26CFF241499CB4AA26
FILE: 01 Anywhere But Here.flac
  Size: 24340005 Hash: B656F0E18B9DE3F6B108BCB8863EFCA8 Accuracy: -m0
  Conclusion: CDDA 100%
  Signature: D6CE5461EB596E7C1018E7C0E2803B8A138DA9C9
FILE: 09 Zigzag to the Sea.flac
  Size: 12168916 Hash: 60FB5EEB437436066CE11380485D4C61 Accuracy: -m0
  Conclusion: CDDA 99%
  Signature: 4B440D6349976AB63B586908F5DA42C308B74664
FILE: 08 Like Wildfire.flac
  Size: 21182862 Hash: 387D829CD457B5BBA4A8D4670FC7971E Accuracy: -m0
  Conclusion: CDDA 99%
  Signature: 9ED5CA1D223118D9A7673A78780458314F5A2EC5
FILE: 07 The Keeper.flac
  Size: 30308140 Hash: 7D73110F20A2BBAA11FE7EDA3E7584DF Accuracy: -m0
  Conclusion: CDDA 100%
  Signature: 39877C208258C40D081E8F1976354CB9CFF88943
Код:
foobar2000 1.3.9 / Замер динамического диапазона (DR) 1.1.1
Дата отчёта:  2016-04-10 15:54:48
--------------------------------------------------------------------------------
Анализ:   Megan Barbera / Zigzag to the Sea
--------------------------------------------------------------------------------
DR         Пики         RMS           Продолжительность трека
--------------------------------------------------------------------------------
DR8       -0.61 дБ   -10.36 дБ      3:45 01-Anywhere But Here
DR9       -0.41 дБ   -12.01 дБ      3:54 02-Can't Love Yourself
DR8       -0.47 дБ   -10.30 дБ      3:24 03-Wasted
DR9       -0.74 дБ   -13.43 дБ      5:32 04-Shallow Well
DR7       -0.59 дБ    -9.61 дБ      4:42 05-Happily Ever After
DR6       -0.65 дБ    -8.31 дБ      2:48 06-A Little Hokey Pokey
DR8       -0.64 дБ   -10.66 дБ      4:54 07-The Keeper
DR8       -0.67 дБ   -11.57 дБ      3:48 08-Like Wildfire
DR10      -0.66 дБ   -13.18 дБ      2:18 09-Zigzag to the Sea
--------------------------------------------------------------------------------
Количество треков: 9
Реальные значения DR: DR8
Частота:   44100 Гц
Каналов:   2
Разрядность:   16
Битрейт:   700 кбит/с
Кодек:   FLAC
================================================================================
..I am also a dedicated songwriter. Some of my songs have managed to find loving homes with audiences, both nationally and abroad. I craft songs that reflect my obvious interest in the human condition. Throughout my career as a songwriter I have been honored to offer my time and music performance to numerous non-profit agencies and social activist groups focusing on child advocacy, AIDS awareness, animal welfare, environmental conservation and gender equality. Most recently, several of my songs have also been licensed by various corporate entities for use in television and internet advertising.
Оф. сайт.
Об альбоме писал(а):
Цитата:
“Barbera’s plaintive and unadorned vocal performance is a breath of fresh air. From a songwriting perspective, this is the class of the album; subtle and nuanced without ever losing touch with the reality that lay behind it.”
— Wildy's World
“Zigzag to the Sea named Top Seller at digstation.com for 2010.”
“Wasted has been selected as one of Indie-Music News’ Top 25 Songs for 2011. A perfectly crafted melancholy song that delivers the mood on the strength of the cry of the accompanying slide guitar.”
— Les Reynolds, Indie Music Magazine
“Wasted, like much of Zigzag to the Sea, is arrestingly intimate. Alternately refreshing and familiar, it exudes a rare singular brand of songcraft that can’t be learned or taught. Long after the listener has shut off their stereo, its lush and lyrical details can be found loitering around in the most unexpected areas of the psyche.”
— Steve Latrell, Examiner.com

released September 24, 2010
Megan Barbera - vox, backing vox, acoustic guitars, piano
Ben Senterfit- backing vox, saxes, guitars, bass, keys
David Chernis- guitars, lap steel, Weissenborn
Kailin Yong - violin on "Zigzag to the Sea"
Christel Rice- flute on "Wasted"
Julianne "Juj" Klasen-Daoud- backing vox on "Anywhere but Here"
David Petry- drums, percussion
Seth Manning- demo drums
Recorded at Cuezone Records, Red Hook, NY
Produced and engineered by Ben Senterfit, The Cuebro Producers, Red Hook, NY
Mastered by Kyle Jones at Sleeping Brotherhood Studios, Denver, CO
CD design and illustration by Jason Heuer
Правила, инструкции, FAQ!!!
Торрент  Добавлен [01 янв 2020, 22:44] Скачать торрент Магнет ссылка
Скачать торрент
[ Размер 17.45 КБ / Просмотров 1 ]

Статус
Проверен 
 
Размер  209.21 МБ
Приватный: Нет (DHT включён)
.torrent скачан  0
 


     Отправить личное сообщение
   
Страница 1 из 1
Показать сообщения за:  Поле сортировки  
Начать новую тему Ответить на тему


Сейчас этот форум просматривают: нет зарегистрированных пользователей и гости: 0


Вы не можете начинать темы
Вы не можете отвечать на сообщения
Вы не можете редактировать свои сообщения
Вы не можете удалять свои сообщения
Вы не можете добавлять вложения

Перейти:  
cron