Начать новую тему Ответить на тему
Статистика раздачи
Размер: 373.29 МБ | Добавлен: 01 янв 2020, 22:58 | Скачали: 0
Сидеров: 1  [0 байт/сек]    Личеров: 0  [0 байт/сек]
Пред. тема | След. тема 

Автор
Сообщение

СообщениеДобавлено: 01 янв 2020, 22:58 

Ответить с цитатой 

Daniel Balavoine / Master Serie
Жанр: Chanson/Pop
Носитель: CD
Страна-производитель диска: France
Год издания: 1991
Издатель (лейбл): PolyGram
Номер по каталогу: 824 241-2
Страна: France
Аудиокодек: FLAC (*.flac)
Тип рипа: image+.cue
Битрейт аудио: lossless
Продолжительность: 63:14
Источник (релизер): CD
Наличие сканов в содержимом раздачи: да
Треклист:
01 - Le chanteur
02 - Les oiseaux (1re partie)
03 - Les oiseaux (2e partie)
04 - Lucie
05 - Oiseau de nuit
06 - Mon fils ma bataille
07 - Rougeagevre
08 - Correspondances
09 - La porte est close
10 - La réponse
11 - Mon pauvre Gunther
12 - J'entends cogner ton coeur
13 - Lise Altmann
14 - Les aventures de Simon et Gunther Stein
15 - Lady Marlène
16 - La lettre à Marie
Код:
Exact Audio Copy V0.99 prebeta 5 from 4. May 2009
EAC extraction logfile from 15. December 2013, 18:22
Daniel Balavoine / Master Serie
Used drive  : HL-DT-STDVDRAM GT50N   Adapter: 0  ID: 1
Read mode               : Secure
Utilize accurate stream : Yes
Defeat audio cache      : Yes
Make use of C2 pointers : No
Read offset correction                      : 103
Overread into Lead-In and Lead-Out          : No
Fill up missing offset samples with silence : Yes
Delete leading and trailing silent blocks   : No
Null samples used in CRC calculations       : Yes
Used interface                              : Native Win32 interface for Win NT & 2000
Used output format              : User Defined Encoder
Selected bitrate                : 128 kBit/s
Quality                         : High
Add ID3 tag                     : No
Command line compressor         : C:\Program Files (x86)\Exact Audio Copy\Flac\flac.exe
Additional command line options : -V -8 %s
TOC of the extracted CD
     Track |   Start  |  Length  | Start sector | End sector
    ---------------------------------------------------------
        1  |  0:00.32 |  3:56.33 |        32    |    17764
        2  |  3:56.65 |  3:47.12 |     17765    |    34801
        3  |  7:44.02 |  3:33.63 |     34802    |    50839
        4  | 11:17.65 |  5:27.00 |     50840    |    75364
        5  | 16:44.65 |  4:47.00 |     75365    |    96889
        6  | 21:31.65 |  4:08.00 |     96890    |   115489
        7  | 25:39.65 |  4:59.50 |    115490    |   137964
        8  | 30:39.40 |  2:47.12 |    137965    |   150501
        9  | 33:26.52 |  3:19.45 |    150502    |   165471
       10  | 36:46.22 |  3:22.10 |    165472    |   180631
       11  | 40:08.32 |  3:04.35 |    180632    |   194466
       12  | 43:12.67 |  4:19.60 |    194467    |   213951
       13  | 47:32.52 |  3:02.45 |    213952    |   227646
       14  | 50:35.22 |  2:58.45 |    227647    |   241041
       15  | 53:33.67 |  4:54.48 |    241042    |   263139
       16  | 58:28.40 |  4:45.50 |    263140    |   284564
Range status and errors
Selected range
     Filename C:\CD RIPS\Daniel Balavoine\Daniel Balavoine - Master Serie cd1.wav
     Peak level 100.0 %
     Range quality 100.0 %
     Test CRC 7F76254E
     Copy CRC 7F76254E
     Copy OK
No errors occurred
AccurateRip summary
Track  1  accurately ripped (confidence 10)  [DD9BB12F]
Track  2  accurately ripped (confidence 11)  [E37B0F93]
Track  3  accurately ripped (confidence 10)  [59AB20FE]
Track  4  accurately ripped (confidence 10)  [3E8B034E]
Track  5  accurately ripped (confidence 10)  [FD8FF0CC]
Track  6  accurately ripped (confidence 10)  [D1A7B9EE]
Track  7  accurately ripped (confidence 10)  [97F9F5EC]
Track  8  accurately ripped (confidence 10)  [62312566]
Track  9  accurately ripped (confidence 10)  [1D2F9F2A]
Track 10  accurately ripped (confidence 10)  [D270E09B]
Track 11  accurately ripped (confidence 9)  [5CA92058]
Track 12  accurately ripped (confidence 10)  [965C56E3]
Track 13  accurately ripped (confidence 10)  [FCA006D2]
Track 14  accurately ripped (confidence 10)  [AABF72AF]
Track 15  accurately ripped (confidence 10)  [4732EDE9]
Track 16  accurately ripped (confidence 9)  [14C15593]
All tracks accurately ripped
End of status report
Код:
REM GENRE Chanson
REM DATE 1986
REM DISCID C90ED210
REM COMMENT "ExactAudioCopy v0.99pb5"
PERFORMER "Daniel Balavoine"
TITLE "Master Serie"
FILE "Daniel Balavoine - Master Serie cd1.flac" WAVE
  TRACK 01 AUDIO
    TITLE "Le chanteur"
    PERFORMER "Daniel Balavoine"
    FLAGS PRE
    INDEX 00 00:00:00
    INDEX 01 00:00:32
  TRACK 02 AUDIO
    TITLE "Les oiseaux (1re partie)"
    PERFORMER "Daniel Balavoine"
    FLAGS PRE
    INDEX 00 03:54:45
    INDEX 01 03:56:65
  TRACK 03 AUDIO
    TITLE "Les oiseaux (2e partie)"
    PERFORMER "Daniel Balavoine"
    FLAGS PRE
    INDEX 01 07:44:02
  TRACK 04 AUDIO
    TITLE "Lucie"
    PERFORMER "Daniel Balavoine"
    FLAGS PRE
    INDEX 00 11:15:65
    INDEX 01 11:17:65
  TRACK 05 AUDIO
    TITLE "Oiseau de nuit"
    PERFORMER "Daniel Balavoine"
    FLAGS PRE
    INDEX 00 16:42:40
    INDEX 01 16:44:65
  TRACK 06 AUDIO
    TITLE "Mon fils ma bataille"
    PERFORMER "Daniel Balavoine"
    FLAGS PRE
    INDEX 01 21:31:65
  TRACK 07 AUDIO
    TITLE "Rougeagevre"
    PERFORMER "Daniel Balavoine"
    FLAGS PRE
    INDEX 01 25:39:65
  TRACK 08 AUDIO
    TITLE "Correspondances"
    PERFORMER "Daniel Balavoine"
    FLAGS PRE
    INDEX 00 30:37:40
    INDEX 01 30:39:40
  TRACK 09 AUDIO
    TITLE "La porte est close"
    PERFORMER "Daniel Balavoine"
    FLAGS PRE
    INDEX 00 33:24:52
    INDEX 01 33:26:52
  TRACK 10 AUDIO
    TITLE "La réponse"
    PERFORMER "Daniel Balavoine"
    FLAGS PRE
    INDEX 00 36:45:15
    INDEX 01 36:46:22
  TRACK 11 AUDIO
    TITLE "Mon pauvre Gunther"
    PERFORMER "Daniel Balavoine"
    FLAGS PRE
    INDEX 00 40:07:40
    INDEX 01 40:08:32
  TRACK 12 AUDIO
    TITLE "J'entends cogner ton coeur"
    PERFORMER "Daniel Balavoine"
    FLAGS PRE
    INDEX 00 43:11:02
    INDEX 01 43:12:67
  TRACK 13 AUDIO
    TITLE "Lise Altmann"
    PERFORMER "Daniel Balavoine"
    FLAGS PRE
    INDEX 00 47:30:15
    INDEX 01 47:32:52
  TRACK 14 AUDIO
    TITLE "Les aventures de Simon et Gunther Stein"
    PERFORMER "Daniel Balavoine"
    FLAGS PRE
    INDEX 01 50:35:22
  TRACK 15 AUDIO
    TITLE "Lady Marlène"
    PERFORMER "Daniel Balavoine"
    FLAGS PRE
    INDEX 00 53:32:65
    INDEX 01 53:33:67
  TRACK 16 AUDIO
    TITLE "La lettre à Marie"
    PERFORMER "Daniel Balavoine"
    FLAGS PRE
    INDEX 00 58:26:02
    INDEX 01 58:28:40
Правила, инструкции, FAQ!!!
Торрент  Добавлен [01 янв 2020, 22:58] Скачать торрент Магнет ссылка
Скачать торрент
[ Размер 15.4 КБ / Просмотров 8 ]

Статус
Проверен 
 
Размер  373.29 МБ
Приватный: Нет (DHT включён)
.torrent скачан  0
 


     Отправить личное сообщение
   
Страница 1 из 1
Показать сообщения за:  Поле сортировки  
Начать новую тему Ответить на тему


Сейчас этот форум просматривают: нет зарегистрированных пользователей и гости: 0


Вы не можете начинать темы
Вы не можете отвечать на сообщения
Вы не можете редактировать свои сообщения
Вы не можете удалять свои сообщения
Вы не можете добавлять вложения

Перейти:  
cron