Начать новую тему Ответить на тему
Статистика раздачи
Размер: 271.81 МБ | Добавлен: 01 янв 2020, 22:46 | Скачали: 0
Сидеров: 0  [0 байт/сек]    Личеров: 38  [0 байт/сек]
Пред. тема | След. тема 

Автор
Сообщение

СообщениеДобавлено: 01 янв 2020, 22:46 

Ответить с цитатой 

Buco i Srdjan / Najljepse pjesme (1973-76)
Жанр: Chanson, Pop
Носитель: CD
Страна-производитель диска (релиза): Croatia
Год издания: 2002
Издатель (лейбл): Croatia Records
Номер по каталогу: CD 5506805
Страна исполнителя (группы): Croatia
Аудиокодек: FLAC (*.flac)
Тип рипа: tracks+.cue
Битрейт аудио: lossless
Продолжительность: 00:46:33
Источник (релизер): my collection
Наличие сканов в содержимом раздачи: да
Треклист:
1 Povratak 2:15
2 Dobro Jutro, Margareta 3:13
3 Lula Starog Kapetana 2:55
4 Zelenci 3:10
5 Noćas 2:50
6 Misli 3:01
7 Večer Je Naš Prijatelj 2:59
8 Sjećanja 2:55
9 Cvijeta Zuzorić 2:53
10 Moja Annabel Lee 3:09
11 Kad Se Jednom Rastanemo 3:15
12 Dugo U Noć, U Zimsku Bijelu Noć 3:50
13 Kad Pjesma Zrikavaca Zamre 3:35
14 Emili 2:33
15 Neusnule Noći 4:00
Код:
Exact Audio Copy V1.0 beta 3 from 29. August 2011
EAC extraction logfile from 25. January 2016, 16:36
Buco i Srdjan / Najljepse Pjesme
Used drive  : ATAPI   DVD A  DH20A4P   Adapter: 2  ID: 0
Read mode               : Secure
Utilize accurate stream : Yes
Defeat audio cache      : Yes
Make use of C2 pointers : No
Read offset correction                      : 6
Overread into Lead-In and Lead-Out          : No
Fill up missing offset samples with silence : Yes
Delete leading and trailing silent blocks   : No
Null samples used in CRC calculations       : Yes
Used interface                              : Native Win32 interface for Win NT & 2000
Gap handling                                : Appended to previous track
Used output format              : User Defined Encoder
Selected bitrate                : 896 kBit/s
Quality                         : High
Add ID3 tag                     : No
Command line compressor         : C:\Program Files\Exact Audio Copy\FLAC\FLAC.EXE
Additional command line options : -V -8 -T "Genre=%genre%" -T "Artist=%artist%" -T "Title=%title%" -T "Album=%albumtitle%" -T "Date=%year%" -T "Tracknumber=%tracknr%" -T "Comment=%comment%" %source%
TOC of the extracted CD
     Track |   Start  |  Length  | Start sector | End sector
    ---------------------------------------------------------
        1  |  0:00.00 |  2:15.15 |         0    |    10139
        2  |  2:15.15 |  3:13.24 |     10140    |    24638
        3  |  5:28.39 |  2:57.55 |     24639    |    37968
        4  |  8:26.19 |  3:10.16 |     37969    |    52234
        5  | 11:36.35 |  2:50.17 |     52235    |    65001
        6  | 14:26.52 |  3:01.26 |     65002    |    78602
        7  | 17:28.03 |  2:59.10 |     78603    |    92037
        8  | 20:27.13 |  2:57.10 |     92038    |   105322
        9  | 23:24.23 |  2:53.62 |    105323    |   118359
       10  | 26:18.10 |  3:09.23 |    118360    |   132557
       11  | 29:27.33 |  3:15.49 |    132558    |   147231
       12  | 32:43.07 |  3:50.09 |    147232    |   164490
       13  | 36:33.16 |  3:37.73 |    164491    |   180838
       14  | 40:11.14 |  2:33.12 |    180839    |   192325
       15  | 42:44.26 |  4:00.41 |    192326    |   210366
Track  1
     Filename D:\Music\Rock, Blues, Pop\Buco i Srdjan - Najljepse pjesme\01 Povratak.wav
     Pre-gap length  0:00:02.00
     Peak level 98.8 %
     Extraction speed 1.8 X
     Track quality 100.0 %
     Test CRC EBEDB126
     Copy CRC EBEDB126
     Cannot be verified as accurate (confidence 2)  [05E3C41C], AccurateRip returned [59B9D535]  (AR v2)
     Copy OK
Track  2
     Filename D:\Music\Rock, Blues, Pop\Buco i Srdjan - Najljepse pjesme\02 Dobro jutro, Margareta.wav
     Pre-gap length  0:00:01.74
     Peak level 98.8 %
     Extraction speed 2.0 X
     Track quality 100.0 %
     Test CRC 83BA753A
     Copy CRC 83BA753A
     Cannot be verified as accurate (confidence 2)  [CC7468FE], AccurateRip returned [39FDC1D4]  (AR v2)
     Copy OK
Track  3
     Filename D:\Music\Rock, Blues, Pop\Buco i Srdjan - Najljepse pjesme\03 Lula starog kapetana.wav
     Pre-gap length  0:00:01.72
     Peak level 98.8 %
     Extraction speed 2.2 X
     Track quality 100.0 %
     Test CRC 66C178B7
     Copy CRC 66C178B7
     Cannot be verified as accurate (confidence 2)  [EC8EA5AF], AccurateRip returned [6C0882B8]  (AR v2)
     Copy OK
Track  4
     Filename D:\Music\Rock, Blues, Pop\Buco i Srdjan - Najljepse pjesme\04 Zelenci.wav
     Pre-gap length  0:00:01.72
     Peak level 98.8 %
     Extraction speed 1.9 X
     Track quality 99.9 %
     Test CRC 09A2B87F
     Copy CRC 09A2B87F
     Cannot be verified as accurate (confidence 2)  [9EA9A51E], AccurateRip returned [6F4AED25]  (AR v2)
     Copy OK
Track  5
     Filename D:\Music\Rock, Blues, Pop\Buco i Srdjan - Najljepse pjesme\05 Nocas.wav
     Pre-gap length  0:00:02.00
     Peak level 98.8 %
     Extraction speed 2.4 X
     Track quality 100.0 %
     Test CRC 01E85225
     Copy CRC 01E85225
     Cannot be verified as accurate (confidence 2)  [05A90022], AccurateRip returned [A52BBC9B]  (AR v2)
     Copy OK
Track  6
     Filename D:\Music\Rock, Blues, Pop\Buco i Srdjan - Najljepse pjesme\06 Misli.wav
     Pre-gap length  0:00:02.00
     Peak level 98.8 %
     Extraction speed 2.5 X
     Track quality 100.0 %
     Test CRC 1027821F
     Copy CRC 1027821F
     Cannot be verified as accurate (confidence 2)  [E8C51F0A], AccurateRip returned [63506097]  (AR v2)
     Copy OK
Track  7
     Filename D:\Music\Rock, Blues, Pop\Buco i Srdjan - Najljepse pjesme\07 Vecer je nas prijatelj.wav
     Pre-gap length  0:00:01.68
     Peak level 98.8 %
     Extraction speed 2.6 X
     Track quality 100.0 %
     Test CRC 318B1BBE
     Copy CRC 318B1BBE
     Cannot be verified as accurate (confidence 2)  [AD0434E3], AccurateRip returned [B0E06DFD]  (AR v2)
     Copy OK
Track  8
     Filename D:\Music\Rock, Blues, Pop\Buco i Srdjan - Najljepse pjesme\08 Sjecanja.wav
     Pre-gap length  0:00:01.70
     Peak level 98.8 %
     Extraction speed 2.7 X
     Track quality 100.0 %
     Test CRC 4B47F449
     Copy CRC 4B47F449
     Cannot be verified as accurate (confidence 2)  [87C173B3], AccurateRip returned [0A62B553]  (AR v2)
     Copy OK
Track  9
     Filename D:\Music\Rock, Blues, Pop\Buco i Srdjan - Najljepse pjesme\09 Cvijeta Zuzoric.wav
     Pre-gap length  0:00:01.66
     Peak level 98.8 %
     Extraction speed 2.8 X
     Track quality 100.0 %
     Test CRC 14418206
     Copy CRC 14418206
     Cannot be verified as accurate (confidence 2)  [79FFEC47], AccurateRip returned [B56CC05A]  (AR v2)
     Copy OK
Track 10
     Filename D:\Music\Rock, Blues, Pop\Buco i Srdjan - Najljepse pjesme\10 Moja Annabel Lee.wav
     Pre-gap length  0:00:02.00
     Peak level 98.8 %
     Extraction speed 3.0 X
     Track quality 100.0 %
     Test CRC 758E363C
     Copy CRC 758E363C
     Cannot be verified as accurate (confidence 2)  [6C79E50E], AccurateRip returned [FC2CE42F]  (AR v2)
     Copy OK
Track 11
     Filename D:\Music\Rock, Blues, Pop\Buco i Srdjan - Najljepse pjesme\11 Kad se jednom rastanemo.wav
     Pre-gap length  0:00:01.74
     Peak level 98.8 %
     Extraction speed 3.1 X
     Track quality 100.0 %
     Test CRC CB162420
     Copy CRC CB162420
     Cannot be verified as accurate (confidence 2)  [DC42731B], AccurateRip returned [04CE2E15]  (AR v2)
     Copy OK
Track 12
     Filename D:\Music\Rock, Blues, Pop\Buco i Srdjan - Najljepse pjesme\12 Dugo u noc.wav
     Pre-gap length  0:00:02.00
     Peak level 98.8 %
     Extraction speed 3.2 X
     Track quality 100.0 %
     Test CRC D985962C
     Copy CRC D985962C
     Cannot be verified as accurate (confidence 2)  [3311248B], AccurateRip returned [4E83810B]  (AR v2)
     Copy OK
Track 13
     Filename D:\Music\Rock, Blues, Pop\Buco i Srdjan - Najljepse pjesme\13 Kad pjesma zrikavaca zamre.wav
     Pre-gap length  0:00:01.74
     Peak level 98.8 %
     Extraction speed 3.3 X
     Track quality 100.0 %
     Test CRC C4B643EE
     Copy CRC C4B643EE
     Cannot be verified as accurate (confidence 2)  [7F2C901E], AccurateRip returned [4F117039]  (AR v2)
     Copy OK
Track 14
     Filename D:\Music\Rock, Blues, Pop\Buco i Srdjan - Najljepse pjesme\14 Emili.wav
     Pre-gap length  0:00:01.74
     Peak level 98.8 %
     Extraction speed 3.2 X
     Track quality 100.0 %
     Test CRC C9E565E6
     Copy CRC C9E565E6
     Cannot be verified as accurate (confidence 2)  [38B38FED], AccurateRip returned [29DADABB]  (AR v2)
     Copy OK
Track 15
     Filename D:\Music\Rock, Blues, Pop\Buco i Srdjan - Najljepse pjesme\15 Neusnule noci.wav
     Pre-gap length  0:00:01.74
     Peak level 98.8 %
     Extraction speed 3.5 X
     Track quality 100.0 %
     Test CRC EEE9982E
     Copy CRC EEE9982E
     Cannot be verified as accurate (confidence 2)  [972204DC], AccurateRip returned [ED7DFDCC]  (AR v2)
     Copy OK
No tracks could be verified as accurate
You may have a different pressing from the one(s) in the database
No errors occurred
End of status report
==== Log checksum 46D201E39A2067FA893FB87744BA1937D1173CADA755EA383897AC5FC0A04922 ====
Код:
REM GENRE Chanson
REM DATE 2002
REM DISCID D40AF40F
REM COMMENT "ExactAudioCopy v1.0b3"
PERFORMER "Buco i Srdjan"
TITLE "Najljepse Pjesme"
FILE "01 Povratak.wav" WAVE
  TRACK 01 AUDIO
    TITLE "Povratak"
    PERFORMER "Buco i Srdjan"
    ISRC 000000000000
    INDEX 01 00:00:00
  TRACK 02 AUDIO
    TITLE "Dobro jutro, Margareta"
    PERFORMER "Buco i Srdjan"
    ISRC 000000000000
    INDEX 00 02:13:16
FILE "02 Dobro jutro, Margareta.wav" WAVE
    INDEX 01 00:00:00
  TRACK 03 AUDIO
    TITLE "Lula starog kapetana"
    PERFORMER "Buco i Srdjan"
    ISRC 000000000000
    INDEX 00 03:11:27
FILE "03 Lula starog kapetana.wav" WAVE
    INDEX 01 00:00:00
  TRACK 04 AUDIO
    TITLE "Zelenci"
    PERFORMER "Buco i Srdjan"
    ISRC 000000000000
    INDEX 00 02:55:58
FILE "04 Zelenci.wav" WAVE
    INDEX 01 00:00:00
  TRACK 05 AUDIO
    TITLE "Nocas"
    PERFORMER "Buco i Srdjan"
    ISRC 000000000000
    INDEX 00 03:08:16
FILE "05 Nocas.wav" WAVE
    INDEX 01 00:00:00
  TRACK 06 AUDIO
    TITLE "Misli"
    PERFORMER "Buco i Srdjan"
    ISRC 000000000000
    INDEX 00 02:48:17
FILE "06 Misli.wav" WAVE
    INDEX 01 00:00:00
  TRACK 07 AUDIO
    TITLE "Vecer je nas prijatelj"
    PERFORMER "Buco i Srdjan"
    ISRC 000000000000
    INDEX 00 02:59:33
FILE "07 Vecer je nas prijatelj.wav" WAVE
    INDEX 01 00:00:00
  TRACK 08 AUDIO
    TITLE "Sjecanja"
    PERFORMER "Buco i Srdjan"
    ISRC 000000000000
    INDEX 00 02:57:15
FILE "08 Sjecanja.wav" WAVE
    INDEX 01 00:00:00
  TRACK 09 AUDIO
    TITLE "Cvijeta Zuzoric"
    PERFORMER "Buco i Srdjan"
    ISRC 000000000000
    INDEX 00 02:55:19
FILE "09 Cvijeta Zuzoric.wav" WAVE
    INDEX 01 00:00:00
  TRACK 10 AUDIO
    TITLE "Moja Annabel Lee"
    PERFORMER "Buco i Srdjan"
    ISRC 000000000000
    INDEX 00 02:51:62
FILE "10 Moja Annabel Lee.wav" WAVE
    INDEX 01 00:00:00
  TRACK 11 AUDIO
    TITLE "Kad se jednom rastanemo"
    PERFORMER "Buco i Srdjan"
    ISRC 000000000000
    INDEX 00 03:07:24
FILE "11 Kad se jednom rastanemo.wav" WAVE
    INDEX 01 00:00:00
  TRACK 12 AUDIO
    TITLE "Dugo u noc"
    PERFORMER "Buco i Srdjan"
    ISRC 000000000000
    INDEX 00 03:13:49
FILE "12 Dugo u noc.wav" WAVE
    INDEX 01 00:00:00
  TRACK 13 AUDIO
    TITLE "Kad pjesma zrikavaca zamre"
    PERFORMER "Buco i Srdjan"
    ISRC 000000000000
    INDEX 00 03:48:10
FILE "13 Kad pjesma zrikavaca zamre.wav" WAVE
    INDEX 01 00:00:00
  TRACK 14 AUDIO
    TITLE "Emili"
    PERFORMER "Buco i Srdjan"
    ISRC 000000000000
    INDEX 00 03:35:74
FILE "14 Emili.wav" WAVE
    INDEX 01 00:00:00
  TRACK 15 AUDIO
    TITLE "Neusnule noci"
    PERFORMER "Buco i Srdjan"
    ISRC 000000000000
    INDEX 00 02:31:13
FILE "15 Neusnule noci.wav" WAVE
    INDEX 01 00:00:00
Код:
AUDIOCHECKER v2.0 beta (build 457) - by Dester - opdester@freemail.hu
~~~~~~~~~~~~~~~~~~~~~~~~~~~~~~~~~~
-=== DO NOT EDIT THIS FILE! ===-
Path: ...\Buco i Srdjan - Najljepse pjesme
01 -=- 01 Povratak.flac -=- CDDA (100%)
02 -=- 02 Dobro jutro, Margareta.flac -=- CDDA (100%)
03 -=- 03 Lula starog kapetana.flac -=- CDDA (100%)
04 -=- 04 Zelenci.flac -=- CDDA (100%)
05 -=- 05 Nocas.flac -=- CDDA (100%)
06 -=- 06 Misli.flac -=- CDDA (100%)
07 -=- 07 Vecer je nas prijatelj.flac -=- CDDA (100%)
08 -=- 08 Sjecanja.flac -=- CDDA (100%)
09 -=- 09 Cvijeta Zuzoric.flac -=- CDDA (100%)
10 -=- 10 Moja Annabel Lee.flac -=- CDDA (100%)
11 -=- 11 Kad se jednom rastanemo.flac -=- CDDA (100%)
12 -=- 12 Dugo u noc.flac -=- CDDA (100%)
13 -=- 13 Kad pjesma zrikavaca zamre.flac -=- CDDA (100%)
14 -=- 14 Emili.flac -=- CDDA (100%)
15 -=- 15 Neusnule noci.flac -=- CDDA (99%)
Summary 99,93% CDDA
252095844
СПАМ*** kasatkal
Srdjan Gjivoja - vocals, guitar
Ljubomir Buco Pende - vocals, guitar
Правила, инструкции, FAQ!!!
Торрент  Добавлен [01 янв 2020, 22:46] Скачать торрент Магнет ссылка
Скачать торрент
[ Размер 12.26 КБ / Просмотров 4 ]

Статус
Проверен 
 
Размер  271.81 МБ
Приватный: Нет (DHT включён)
.torrent скачан  0
 


     Отправить личное сообщение
   
Страница 1 из 1
Показать сообщения за:  Поле сортировки  
Начать новую тему Ответить на тему


Сейчас этот форум просматривают: нет зарегистрированных пользователей и гости: 0


Вы не можете начинать темы
Вы не можете отвечать на сообщения
Вы не можете редактировать свои сообщения
Вы не можете удалять свои сообщения
Вы не можете добавлять вложения

Перейти:  
cron