Начать новую тему Ответить на тему
Статистика раздачи
Размер: 288.93 МБ | Добавлен: 01 янв 2020, 22:48 | Скачали: 0
Сидеров: 1  [0 байт/сек]    Личеров: 0  [0 байт/сек]
Пред. тема | След. тема 

Автор
Сообщение

СообщениеДобавлено: 01 янв 2020, 22:48 

Ответить с цитатой 

Pierre Rapsat - 1980
Жанр: Chanson
Носитель: CD
Страна-производитель диска: Бельгия
Год издания: 1979 (2008)
Издатель (лейбл): Viva Nova
Номер по каталогу: 704073
Аудиокодек: FLAC (*.flac)
Тип рипа: tracks+.cue
Битрейт аудио: lossless
Продолжительность: 42:50
Источник (релизер): Ashran (what)
Наличие сканов в содержимом раздачи: нет
Треклист:
01. 1980 (4:38)
02. Quarante degres (3:54)
03. Paul cow-boy (3:18)
04. Delire anime (3:13)
05. Casseurs de raison (4:05)
06. Vie en scope (5:21)
07. S.O.S. (Tu prends ton telephone) (4:19)
08. A projeter (4:26)
09. Transplanet express (4:50)
10. Epilogue (0:23)
11. 1980 (Live 1982) (4:23)
Код:
Exact Audio Copy V1.0 beta 3 from 29. August 2011
EAC extraction logfile from 26. November 2012, 9:34
Pierre Rapsat / 1980
Used drive  : TSSTcorpCDDVDW SH-S223B   Adapter: 5  ID: 0
Read mode               : Secure
Utilize accurate stream : Yes
Defeat audio cache      : Yes
Make use of C2 pointers : No
Read offset correction                      : 6
Overread into Lead-In and Lead-Out          : No
Fill up missing offset samples with silence : Yes
Delete leading and trailing silent blocks   : No
Null samples used in CRC calculations       : Yes
Used interface                              : Native Win32 interface for Win NT & 2000
Gap handling                                : Appended to previous track
Used output format              : User Defined Encoder
Selected bitrate                : 896 kBit/s
Quality                         : High
Add ID3 tag                     : No
Command line compressor         : C:\Program Files (x86)\Exact Audio Copy\FLAC\FLAC.EXE
Additional command line options : -8 -V -T "ARTIST=%artist%" -T "TITLE=%title%" -T "ALBUM=%albumtitle%" -T "DATE=%year%" -T "TRACKNUMBER=%tracknr%" -T "GENRE=%genre%" -T "PERFORMER=%albuminterpret%" -T "COMPOSER=%composer%" %haslyrics%--tag-from-file=LYRICS="%lyricsfile%"%haslyrics% -T "ALBUMARTIST=%albumartist%" -T "DISCNUMBER=%cdnumber%" -T "TOTALDISCS=%totalcds%" -T "TOTALTRACKS=%numtracks%" -T "COMMENT=%comment%" %source% -o %dest%
TOC of the extracted CD
     Track |   Start  |  Length  | Start sector | End sector
    ---------------------------------------------------------
        1  |  0:00.00 |  4:37.59 |         0    |    20833
        2  |  4:37.59 |  3:53.58 |     20834    |    38366
        3  |  8:31.42 |  3:18.31 |     38367    |    53247
        4  | 11:49.73 |  3:13.06 |     53248    |    67728
        5  | 15:03.04 |  4:05.06 |     67729    |    86109
        6  | 19:08.10 |  5:20.48 |     86110    |   110157
        7  | 24:28.58 |  4:19.04 |    110158    |   129586
        8  | 28:47.62 |  4:25.56 |    129587    |   149517
        9  | 33:13.43 |  4:50.28 |    149518    |   171295
       10  | 38:03.71 |  0:22.41 |    171296    |   172986
       11  | 38:26.37 |  4:23.21 |    172987    |   192732
Track  1
     Filename C:\Users\Ashran\Downloads\Pierre Rapsat - 1980 (1979) [Flac]\ 01 - 1980.wav
     Pre-gap length  0:00:02.00
     Peak level 96.6 %
     Extraction speed 4.4 X
     Track quality 100.0 %
     Test CRC 7A02F2F5
     Copy CRC 7A02F2F5
     Track not present in AccurateRip database
     Copy OK
Track  2
     Filename C:\Users\Ashran\Downloads\Pierre Rapsat - 1980 (1979) [Flac]\ 02 - Quarante Degrés.wav
     Pre-gap length  0:00:01.00
     Peak level 96.6 %
     Extraction speed 4.8 X
     Track quality 100.0 %
     Test CRC 3BD53E14
     Copy CRC 3BD53E14
     Track not present in AccurateRip database
     Copy OK
Track  3
     Filename C:\Users\Ashran\Downloads\Pierre Rapsat - 1980 (1979) [Flac]\ 03 - Paul Cow-Boy.wav
     Pre-gap length  0:00:01.00
     Peak level 96.6 %
     Extraction speed 5.1 X
     Track quality 100.0 %
     Test CRC 0FD5D7FE
     Copy CRC 0FD5D7FE
     Track not present in AccurateRip database
     Copy OK
Track  4
     Filename C:\Users\Ashran\Downloads\Pierre Rapsat - 1980 (1979) [Flac]\ 04 - Délire Animé.wav
     Pre-gap length  0:00:01.00
     Peak level 96.6 %
     Extraction speed 5.4 X
     Track quality 100.0 %
     Test CRC 02C395E5
     Copy CRC 02C395E5
     Track not present in AccurateRip database
     Copy OK
Track  5
     Filename C:\Users\Ashran\Downloads\Pierre Rapsat - 1980 (1979) [Flac]\ 05 - Casseurs De Raison.wav
     Pre-gap length  0:00:01.00
     Peak level 96.6 %
     Extraction speed 5.9 X
     Track quality 100.0 %
     Test CRC 586D6630
     Copy CRC 586D6630
     Track not present in AccurateRip database
     Copy OK
Track  6
     Filename C:\Users\Ashran\Downloads\Pierre Rapsat - 1980 (1979) [Flac]\ 06 - Vie En Scope.wav
     Pre-gap length  0:00:01.00
     Peak level 96.6 %
     Extraction speed 6.5 X
     Track quality 100.0 %
     Test CRC AA303012
     Copy CRC AA303012
     Track not present in AccurateRip database
     Copy OK
Track  7
     Filename C:\Users\Ashran\Downloads\Pierre Rapsat - 1980 (1979) [Flac]\ 07 - SOS (Tu Prends Ton Téléphone).wav
     Pre-gap length  0:00:01.00
     Peak level 96.6 %
     Extraction speed 6.8 X
     Track quality 100.0 %
     Test CRC B0261F66
     Copy CRC B0261F66
     Track not present in AccurateRip database
     Copy OK
Track  8
     Filename C:\Users\Ashran\Downloads\Pierre Rapsat - 1980 (1979) [Flac]\ 08 - A Projeter.wav
     Pre-gap length  0:00:01.00
     Peak level 96.6 %
     Extraction speed 7.1 X
     Track quality 100.0 %
     Test CRC 20FE026C
     Copy CRC 20FE026C
     Track not present in AccurateRip database
     Copy OK
Track  9
     Filename C:\Users\Ashran\Downloads\Pierre Rapsat - 1980 (1979) [Flac]\ 09 - Transplanet Express.wav
     Pre-gap length  0:00:01.00
     Peak level 96.6 %
     Extraction speed 7.5 X
     Track quality 100.0 %
     Test CRC 486A8A61
     Copy CRC 486A8A61
     Track not present in AccurateRip database
     Copy OK
Track 10
     Filename C:\Users\Ashran\Downloads\Pierre Rapsat - 1980 (1979) [Flac]\ 10 - Epilogue.wav
     Pre-gap length  0:00:01.00
     Peak level 28.6 %
     Extraction speed 0.5 X
     Track quality 99.5 %
     Test CRC 04544C69
     Copy CRC 04544C69
     Track not present in AccurateRip database
     Copy OK
Track 11
     Filename C:\Users\Ashran\Downloads\Pierre Rapsat - 1980 (1979) [Flac]\ 11 - 1980 - Live 1982.wav
     Pre-gap length  0:00:03.00
     Peak level 96.6 %
     Extraction speed 3.9 X
     Track quality 99.9 %
     Test CRC 21855263
     Copy CRC 21855263
     Track not present in AccurateRip database
     Copy OK
None of the tracks are present in the AccurateRip database
No errors occurred
End of status report
---- CUETools DB Plugin V2.1.3
[CTDB TOCID: qzwo7I35U..IlM_gnu0xlIstmYU-] disk not present in database, Submit result: qzwo7I35U..IlM_gnu0xlIstmYU- has been uploaded
==== Log checksum 4E33F23AC9997F6E10B30606BB99115BAAEB7ED4A0881A4C99A9FA7BADFC5345 ====
Код:
REM GENRE Chanson
REM DATE 1979
REM DISCID 900A090B
REM COMMENT "ExactAudioCopy v1.0b3"
CATALOG 5425007040739
PERFORMER "Pierre Rapsat"
TITLE "1980"
FILE "01 - 1980.wav" WAVE
  TRACK 01 AUDIO
    TITLE "1980"
    PERFORMER "Pierre Rapsat"
    INDEX 01 00:00:00
  TRACK 02 AUDIO
    TITLE "Quarante degres"
    PERFORMER "Pierre Rapsat"
    INDEX 00 04:36:59
FILE "02 - Quarante degres.wav" WAVE
    INDEX 01 00:00:00
  TRACK 03 AUDIO
    TITLE "Paul cow-boy"
    PERFORMER "Pierre Rapsat"
    INDEX 00 03:52:58
FILE "03 - Paul cow-boy.wav" WAVE
    INDEX 01 00:00:00
  TRACK 04 AUDIO
    TITLE "Delire anime"
    PERFORMER "Pierre Rapsat"
    INDEX 00 03:17:31
FILE "04 - Delire anime.wav" WAVE
    INDEX 01 00:00:00
  TRACK 05 AUDIO
    TITLE "Casseurs de raison"
    PERFORMER "Pierre Rapsat"
    INDEX 00 03:12:06
FILE "05 - Casseurs de raison.wav" WAVE
    INDEX 01 00:00:00
  TRACK 06 AUDIO
    TITLE "Vie en scope"
    PERFORMER "Pierre Rapsat"
    INDEX 00 04:04:06
FILE "06 - Vie en scope.wav" WAVE
    INDEX 01 00:00:00
  TRACK 07 AUDIO
    TITLE "S.O.S. (Tu prends ton telephone)"
    PERFORMER "Pierre Rapsat"
    INDEX 00 05:19:48
FILE "07 - S.O.S. (Tu prends ton telephone).wav" WAVE
    INDEX 01 00:00:00
  TRACK 08 AUDIO
    TITLE "A projeter"
    PERFORMER "Pierre Rapsat"
    INDEX 00 04:18:04
FILE "08 - A projeter.wav" WAVE
    INDEX 01 00:00:00
  TRACK 09 AUDIO
    TITLE "Transplanet express"
    PERFORMER "Pierre Rapsat"
    INDEX 00 04:24:56
FILE "09 - Transplanet express.wav" WAVE
    INDEX 01 00:00:00
  TRACK 10 AUDIO
    TITLE "Epilogue"
    PERFORMER "Pierre Rapsat"
    INDEX 00 04:49:28
FILE "10 - Epilogue.wav" WAVE
    INDEX 01 00:00:00
  TRACK 11 AUDIO
    TITLE "1980 (Live 1982)"
    PERFORMER "Pierre Rapsat"
    INDEX 00 00:19:41
FILE "11 - 1980 (Live 1982).wav" WAVE
    INDEX 01 00:00:00
Код:
[CUETools log; Date: 17.06.2014 1:41:27; Version: 2.1.4]
[CTDB TOCID: qzwo7I35U..IlM_gnu0xlIstmYU-] found.
Track | CTDB Status
  1   | (1/1) Accurately ripped
  2   | (1/1) Accurately ripped
  3   | (1/1) Accurately ripped
  4   | (1/1) Accurately ripped
  5   | (1/1) Accurately ripped
  6   | (1/1) Accurately ripped
  7   | (1/1) Accurately ripped
  8   | (1/1) Accurately ripped
  9   | (1/1) Accurately ripped
 10   | (1/1) Accurately ripped
 11   | (1/1) Accurately ripped
[AccurateRip ID: 00123277-009d4648-900a090b] disk not present in database.
Track Peak [ CRC32  ] [W/O NULL] [  LOG   ]
 --   96,6 [2283687C] [138E4D08]
 01   96,6 [7A02F2F5] [B2668806]   CRC32
 02   96,6 [3BD53E14] [5CE04FC2]   CRC32
 03   96,6 [0FD5D7FE] [AE19929D]   CRC32
 04   96,6 [02C395E5] [D395D481]   CRC32
 05   96,6 [586D6630] [2612ECC8]   CRC32
 06   96,6 [AA303012] [1EC077B0]   CRC32
 07   96,6 [B0261F66] [600A558E]   CRC32
 08   96,6 [20FE026C] [56C2B1F4]   CRC32
 09   96,6 [486A8A61] [FCB94AC2]   CRC32
 10   28,6 [04544C69] [B2726C7E]   CRC32
 11   96,6 [21855263] [C8860568]   CRC32
Правила, инструкции, FAQ!!!
Торрент  Добавлен [01 янв 2020, 22:48] Скачать торрент Магнет ссылка
Скачать торрент
[ Размер 12.54 КБ / Просмотров 2 ]

Статус
Проверен 
 
Размер  288.93 МБ
Приватный: Нет (DHT включён)
.torrent скачан  0
 


     Отправить личное сообщение
   
Страница 1 из 1
Показать сообщения за:  Поле сортировки  
Начать новую тему Ответить на тему


Сейчас этот форум просматривают: нет зарегистрированных пользователей и гости: 0


Вы не можете начинать темы
Вы не можете отвечать на сообщения
Вы не можете редактировать свои сообщения
Вы не можете удалять свои сообщения
Вы не можете добавлять вложения

Перейти:  
cron