Начать новую тему Ответить на тему
Статистика раздачи
Размер: 114.23 МБ | Добавлен: 01 янв 2020, 22:54 | Скачали: 0
Сидеров: 1  [0 байт/сек]    Личеров: 0  [0 байт/сек]
Пред. тема | След. тема 

Автор
Сообщение

СообщениеДобавлено: 01 янв 2020, 22:54 

Ответить с цитатой 

Pierre Lapointe - Pierre Lapointe (Demos)
Жанр: Chanson
Носитель: CD
Страна-производитель диска: Канада
Год издания: 2002
Издатель (лейбл): Self-Released
Номер по каталогу: MMMP116
Аудиокодек: FLAC (*.flac)
Тип рипа: tracks+.cue
Битрейт аудио: lossless
Продолжительность: 23:19
Источник (релизер): theRadDept (what)
Наличие сканов в содержимом раздачи: да
Треклист:
01. Intro (1:21)
02. Le columbarium (2:28)
03. Pointant le Nord (3:37)
04. Debout sur ma tete (3:04)
05. Petite fille laide (1:49)
06. La boutique fantastique (3:06)
07. La valse electrique (2:50)
08. L'ete (1:55)
09. Trois enfants (3:09)
Код:
Exact Audio Copy V0.99 prebeta 4 from 23. January 2008
EAC extraction logfile from 20. June 2010, 19:00
Pierre Lapointe / Pierre Lapointe (Maquette)
Used drive  : TSSTcorpCDDVDW SH-S223Q   Adapter: 2  ID: 1
Read mode               : Secure
Utilize accurate stream : Yes
Defeat audio cache      : Yes
Make use of C2 pointers : No
Read offset correction                      : 6
Overread into Lead-In and Lead-Out          : No
Fill up missing offset samples with silence : Yes
Delete leading and trailing silent blocks   : No
Null samples used in CRC calculations       : Yes
Used interface                              : Native Win32 interface for Win NT & 2000
Gap handling                                : Appended to previous track
Used output format              : User Defined Encoder
Selected bitrate                : 768 kBit/s
Quality                         : High
Add ID3 tag                     : No
Command line compressor         : C:\Program Files\FLAC\flac.exe
Additional command line options : -V -8 -T "artist=%a" -T "title=%t" -T "album=%g" -T "date=%y" -T "tracknumber=%n" %s
TOC of the extracted CD
     Track |   Start  |  Length  | Start sector | End sector
    ---------------------------------------------------------
        1  |  0:00.00 |  1:20.74 |         0    |     6073
        2  |  1:20.74 |  2:27.73 |      6074    |    17171
        3  |  3:48.72 |  3:37.25 |     17172    |    33471
        4  |  7:26.22 |  3:03.69 |     33472    |    47265
        5  | 10:30.16 |  1:48.65 |     47266    |    55430
        6  | 12:19.06 |  3:05.38 |     55431    |    69343
        7  | 15:24.44 |  2:50.27 |     69344    |    82120
        8  | 18:14.71 |  1:55.12 |     82121    |    90757
        9  | 20:10.08 |  3:09.31 |     90758    |   104963
Track  1
     Filename C:\Hi there RIAA, What's up IFPI\Pierre Lapointe - Pierre Lapointe (Maquette)\01 - Intro.wav
     Pre-gap length  0:00:02.00
     Peak level 100.0 %
     Track quality 100.0 %
     Test CRC B3492660
     Copy CRC B3492660
     Track not present in AccurateRip database
     Copy OK
Track  2
     Filename C:\Hi there RIAA, What's up IFPI\Pierre Lapointe - Pierre Lapointe (Maquette)\02 - Le Columbarium.wav
     Pre-gap length  0:00:02.00
     Peak level 100.0 %
     Track quality 100.0 %
     Test CRC AE0E0EF7
     Copy CRC AE0E0EF7
     Track not present in AccurateRip database
     Copy OK
Track  3
     Filename C:\Hi there RIAA, What's up IFPI\Pierre Lapointe - Pierre Lapointe (Maquette)\03 - Pointant Le Nord.wav
     Pre-gap length  0:00:02.00
     Peak level 99.2 %
     Track quality 100.0 %
     Test CRC 42255934
     Copy CRC 42255934
     Track not present in AccurateRip database
     Copy OK
Track  4
     Filename C:\Hi there RIAA, What's up IFPI\Pierre Lapointe - Pierre Lapointe (Maquette)\04 - Debout Sur Ma Tкte.wav
     Pre-gap length  0:00:02.00
     Peak level 100.0 %
     Track quality 100.0 %
     Test CRC F26F6F68
     Copy CRC F26F6F68
     Track not present in AccurateRip database
     Copy OK
Track  5
     Filename C:\Hi there RIAA, What's up IFPI\Pierre Lapointe - Pierre Lapointe (Maquette)\05 - Petite Fille Laide.wav
     Pre-gap length  0:00:02.00
     Peak level 100.0 %
     Track quality 100.0 %
     Test CRC 9D344E5D
     Copy CRC 9D344E5D
     Track not present in AccurateRip database
     Copy OK
Track  6
     Filename C:\Hi there RIAA, What's up IFPI\Pierre Lapointe - Pierre Lapointe (Maquette)\06 - La Boutique Fantastique.wav
     Pre-gap length  0:00:02.00
     Peak level 99.8 %
     Track quality 100.0 %
     Test CRC 0B9A3D87
     Copy CRC 0B9A3D87
     Track not present in AccurateRip database
     Copy OK
Track  7
     Filename C:\Hi there RIAA, What's up IFPI\Pierre Lapointe - Pierre Lapointe (Maquette)\07 - La Valse Йlectrique.wav
     Pre-gap length  0:00:02.00
     Peak level 99.5 %
     Track quality 99.9 %
     Test CRC EBDEF2ED
     Copy CRC EBDEF2ED
     Track not present in AccurateRip database
     Copy OK
Track  8
     Filename C:\Hi there RIAA, What's up IFPI\Pierre Lapointe - Pierre Lapointe (Maquette)\08 - L'йtй.wav
     Pre-gap length  0:00:02.00
     Peak level 99.8 %
     Track quality 100.0 %
     Test CRC 4254E2FB
     Copy CRC 4254E2FB
     Track not present in AccurateRip database
     Copy OK
Track  9
     Filename C:\Hi there RIAA, What's up IFPI\Pierre Lapointe - Pierre Lapointe (Maquette)\09 - Trois Enfants.wav
     Pre-gap length  0:00:02.00
     Peak level 99.8 %
     Track quality 100.0 %
     Test CRC 4A1FB337
     Copy CRC 4A1FB337
     Track not present in AccurateRip database
     Copy OK
None of the tracks are present in the AccurateRip database
No errors occurred
End of status report
Код:
REM GENRE Chanson
REM DATE 2002
REM DISCID 5F057709
REM COMMENT "ExactAudioCopy v0.99pb4"
PERFORMER "Pierre Lapointe"
TITLE "Pierre Lapointe (Demos)"
FILE "01 - Intro.wav" WAVE
  TRACK 01 AUDIO
    TITLE "Intro"
    PERFORMER "Pierre Lapointe"
    INDEX 01 00:00:00
  TRACK 02 AUDIO
    TITLE "Le columbarium"
    PERFORMER "Pierre Lapointe"
    INDEX 00 01:18:74
FILE "02 - Le columbarium.wav" WAVE
    INDEX 01 00:00:00
  TRACK 03 AUDIO
    TITLE "Pointant le Nord"
    PERFORMER "Pierre Lapointe"
    INDEX 00 02:25:73
FILE "03 - Pointant le Nord.wav" WAVE
    INDEX 01 00:00:00
  TRACK 04 AUDIO
    TITLE "Debout sur ma tete"
    PERFORMER "Pierre Lapointe"
    INDEX 00 03:35:25
FILE "04 - Debout sur ma tete.wav" WAVE
    INDEX 01 00:00:00
  TRACK 05 AUDIO
    TITLE "Petite fille laide"
    PERFORMER "Pierre Lapointe"
    INDEX 00 03:01:69
FILE "05 - Petite fille laide.wav" WAVE
    INDEX 01 00:00:00
  TRACK 06 AUDIO
    TITLE "La boutique fantastique"
    PERFORMER "Pierre Lapointe"
    INDEX 00 01:46:65
FILE "06 - La boutique fantastique.wav" WAVE
    INDEX 01 00:00:00
  TRACK 07 AUDIO
    TITLE "La valse electrique"
    PERFORMER "Pierre Lapointe"
    INDEX 00 03:03:38
FILE "07 - La valse electrique.wav" WAVE
    INDEX 01 00:00:00
  TRACK 08 AUDIO
    TITLE "L'ete"
    PERFORMER "Pierre Lapointe"
    INDEX 00 02:48:27
FILE "08 - L'ete.wav" WAVE
    INDEX 01 00:00:00
  TRACK 09 AUDIO
    TITLE "Trois enfants"
    PERFORMER "Pierre Lapointe"
    INDEX 00 01:53:12
FILE "09 - Trois enfants.wav" WAVE
    INDEX 01 00:00:00
Код:
[CUETools log; Date: 26.11.2014 16:17:09; Version: 2.1.5]
[CTDB TOCID: y4xjVkUz.A7qkRpYNgHVAXAWTbI-] disk not present in database.
[AccurateRip ID: 0007baea-00399b4b-5f057709] found.
Track   [  CRC   |   V2   ] Status
 01     [095a6aea|c727c598] (1+0/1) Accurately ripped
 02     [738ba0c8|d94ebb25] (1+0/1) Accurately ripped
 03     [cefcfd60|520595db] (1+0/1) Accurately ripped
 04     [86b59500|3b083960] (1+0/1) Accurately ripped
 05     [a70abe2f|a0d8b686] (1+0/1) Accurately ripped
 06     [062f7d68|22db13a3] (1+0/1) Accurately ripped
 07     [a3743981|8e2c91d9] (1+0/1) Accurately ripped
 08     [737244a4|1699d8ab] (1+0/1) Accurately ripped
 09     [ef774cc1|96768991] (1+0/1) Accurately ripped
Track Peak [ CRC32  ] [W/O NULL] [  LOG   ]
 --  100,0 [55AA13F0] [15065FFE]
 01  100,0 [B3492660] [01C06C1F]   CRC32
 02  100,0 [AE0E0EF7] [7B14C5F8]   CRC32
 03   99,2 [42255934] [3F3854FC]   CRC32
 04   99,9 [F26F6F68] [1048E30E]   CRC32
 05  100,0 [9D344E5D] [E6D3B248]   CRC32
 06   99,8 [0B9A3D87] [2C2C9404]   CRC32
 07   99,5 [EBDEF2ED] [404F944D]   CRC32
 08   99,8 [4254E2FB] [4E55AD8E]   CRC32
 09   99,8 [4A1FB337] [4F0FAFB3]   CRC32
A promo CD sold at early shows in 2002 - Wikipedia says it's impossible to find anymore.
Правила, инструкции, FAQ!!!
Торрент  Добавлен [01 янв 2020, 22:54] Скачать торрент Магнет ссылка
Скачать торрент
[ Размер 19.17 КБ / Просмотров 0 ]

Статус
Проверен 
 
Размер  114.23 МБ
Приватный: Нет (DHT включён)
.torrent скачан  0
 


     Отправить личное сообщение
   
Страница 1 из 1
Показать сообщения за:  Поле сортировки  
Начать новую тему Ответить на тему


Сейчас этот форум просматривают: нет зарегистрированных пользователей и гости: 0


Вы не можете начинать темы
Вы не можете отвечать на сообщения
Вы не можете редактировать свои сообщения
Вы не можете удалять свои сообщения
Вы не можете добавлять вложения

Перейти:  
cron