Начать новую тему Ответить на тему
Статистика раздачи
Размер: 413.29 МБ | Добавлен: 01 янв 2020, 22:47 | Скачали: 0
Сидеров: 0  [0 байт/сек]    Личеров: 0  [0 байт/сек]
Пред. тема | След. тема 

Автор
Сообщение

СообщениеДобавлено: 01 янв 2020, 22:47 

Ответить с цитатой 

Patrick Bruel - Des Souvenirs Devant...
Жанр: Chanson
Страна-производитель диска: E.U.
Год издания диска: 2006
Издатель (лейбл): Sony BMG Music Entertainment
Номер по каталогу: 82876781442
Страна: France
Аудио кодек: FLAC (*.flac)
Тип рипа: image+.cue
Битрейт аудио: lossless
Продолжительность: 58:34
Источник (релизер): Собственный рип с фирменного диска
Наличие сканов в содержимом раздачи: да
Трэклист:
1.Je Fais Semblant
2.J'M'Attendais Pas A Toi
3.Panne De Mélancolie
4.Lettre Au Père Noël
5.Raconte-Moi
6.Adieu
7 Gosses En Cavale
8 Va Où Tu Veux
9 Notre Plus Beau Voyage
10 Où Sont Les Rêves
11 Peuple Impopulaire
12 Ma Maison De Papier
Доп. информация:
discogs
на discogs время треков не указано. время последнего трека на обложке 5:36
какое время на самом деле можно увидеть тут
песня = 5:36 по тексту исполнена вся. остально время тишина, затем еще немного другой песни.
буклет с фотографиями и текстами песен на французском языке прилагается
Код:
Exact Audio Copy V0.99 prebeta 5 from 4. May 2009
EAC extraction logfile from 16. February 2009, 20:49
Patrick Bruel / Des Souvenirs Devant...
Used drive  : ASUS    DRW-2014L1T   Adapter: 5  ID: 0
Read mode               : Secure
Utilize accurate stream : Yes
Defeat audio cache      : Yes
Make use of C2 pointers : No
Read offset correction                      : 6
Overread into Lead-In and Lead-Out          : No
Fill up missing offset samples with silence : Yes
Delete leading and trailing silent blocks   : No
Null samples used in CRC calculations       : Yes
Used interface                              : Native Win32 interface for Win NT & 2000
Used output format              : User Defined Encoder
Selected bitrate                : 128 kBit/s
Quality                         : High
Add ID3 tag                     : No
Command line compressor         : C:\Program Files\Exact Audio Copy\FLAC\FLAC.EXE
Additional command line options : -6 -V -T "ARTIST=%a" -T "TITLE=%t" -T "ALBUM=%g" -T "DATE=%y" -T "TRACKNUMBER=%n" -T "GENRE=%m" -T "COMMENT=%e" %s -o %d
TOC of the extracted CD
     Track |   Start  |  Length  | Start sector | End sector
    ---------------------------------------------------------
        1  |  0:00.00 |  4:44.46 |         0    |    21345
        2  |  4:44.46 |  4:13.56 |     21346    |    40376
        3  |  8:58.27 |  5:18.42 |     40377    |    64268
        4  | 14:16.69 |  3:20.72 |     64269    |    79340
        5  | 17:37.66 |  4:32.35 |     79341    |    99775
        6  | 22:10.26 |  4:34.01 |     99776    |   120326
        7  | 26:44.27 |  3:45.57 |    120327    |   137258
        8  | 30:30.09 |  4:49.41 |    137259    |   158974
        9  | 35:19.50 |  3:53.21 |    158975    |   176470
       10  | 39:12.71 |  4:38.47 |    176471    |   197367
       11  | 43:51.43 |  6:21.33 |    197368    |   225975
       12  | 50:13.01 |  8:35.23 |    225976    |   264623
       13  | 61:20.24 |  6:45.14 |    276024    |   306412
Range status and errors
Selected range
     Filename C:\Patrick Bruel - Des Souvenirs Devant\Patrick Bruel - Des Souvenirs Devant....wav
     Peak level 100.0 %
     Range quality 100.0 %
     Test CRC 9A3D8C55
     Copy CRC 9A3D8C55
     Copy OK
No errors occurred
AccurateRip summary
Track  1  accurately ripped (confidence 5)  [E31997CC]
Track  2  accurately ripped (confidence 5)  [354A6493]
Track  3  accurately ripped (confidence 5)  [7FE5DCC1]
Track  4  accurately ripped (confidence 5)  [E4B0791F]
Track  5  accurately ripped (confidence 5)  [3BBDAFDA]
Track  6  accurately ripped (confidence 5)  [7FB1A17F]
Track  7  accurately ripped (confidence 4)  [AFB34B35]
Track  8  accurately ripped (confidence 4)  [13C79F18]
Track  9  accurately ripped (confidence 4)  [F6B62170]
Track 10  accurately ripped (confidence 5)  [2779D04D]
Track 11  accurately ripped (confidence 5)  [1D59A74D]
Track 12  accurately ripped (confidence 4)  [FAA848FA]
All tracks accurately ripped
End of status report
Правила, инструкции, FAQ!!!
Торрент  Добавлен [01 янв 2020, 22:47] Скачать торрент Магнет ссылка
Скачать торрент
[ Размер 17.59 КБ / Просмотров 5 ]

Статус
Проверен 
 
Размер  413.29 МБ
Приватный: Нет (DHT включён)
.torrent скачан  0
 


     Отправить личное сообщение
   
Страница 1 из 1
Показать сообщения за:  Поле сортировки  
Начать новую тему Ответить на тему


Сейчас этот форум просматривают: нет зарегистрированных пользователей и гости: 0


Вы не можете начинать темы
Вы не можете отвечать на сообщения
Вы не можете редактировать свои сообщения
Вы не можете удалять свои сообщения
Вы не можете добавлять вложения

Перейти:  
cron