Начать новую тему Ответить на тему
Статистика раздачи
Размер: 313.08 МБ | Добавлен: 01 янв 2020, 22:59 | Скачали: 0
Сидеров: 0  [0 байт/сек]    Личеров: 0  [0 байт/сек]
Пред. тема | След. тема 

Автор
Сообщение

СообщениеДобавлено: 01 янв 2020, 22:59 

Ответить с цитатой 

Patrice Et Mario - Bravo A Patrice Et Mario


Жанр: Chanson
Год выпуска диска: 1957 (1988)
Производитель диска: Austria
Label : CBS
Аудио кодек: FLAC
Тип рипа: image+.cue + scans
Битрейт аудио: lossless
Продолжительность: 59:32
Источник: Личный CD
Треклист:
01 Gondolier
02 Les Enfants Du Pirée
03 Bambino
04 Le Torrent
05 Arrivederci Roma
06 Je Vais Revoir Ma Blonde
07 La Colline Aux Oiseaux
08 Le Petit Ane Brésilien
09 Venus
10 Montagne D'Italie
11 Chanson D'orphée
12 Domani
13 Rapsodie Suedoise
14 Vaya Con Dios
15 Etoile Des Neiges
16 Viens
17 Garde Ca Pour Toi
18 Je Pars
19 Les Trois Cloches
20 Le Jour Ou La Pluie Viendra
21 Come Prima
Код:
Exact Audio Copy V0.99 prebeta 4 from 23. January 2008
Отчёт EAC об извлечении, выполненном 28. сентября 2009, 22:18
Patrice et Mario / Bravo A Patrice Et Mario
Дисковод: PIONEER DVD-RW  DVR-212   Adapter: 7  ID: 0
Режим чтения                 : Достоверность
Использование точного потока : Да
Отключение кэша аудио        : Да
Использование указателей C2  : Нет
Коррекция смещения при чтении                     : 48
Способность читать области Lead-in и Lead-out     : Нет
Заполнение пропущенных сэмплов тишиной            : Да
Удаление блоков с тишиной в начале и конце        : Нет
При вычислениях CRC использовались нулевые сэмплы : Да
Интерфейс                                         : Установленный внешний ASPI-интерфейс
Выходной формат : Внутренние WAV-операции
Формат сэмплов  : 44.100 Гц; 16 бит; стерео
TOC извлечённого CD
     Трек |   Старт  | Длительность | Начальный сектор | Конечный сектор
    ---------------------------------------------------------------------
       1  |  0:00.32 |    2:55.68   |          32      |      13224
       2  |  2:56.25 |    2:58.55   |       13225      |      26629
       3  |  5:55.05 |    3:22.30   |       26630      |      41809
       4  |  9:17.35 |    3:03.45   |       41810      |      55579
       5  | 12:21.05 |    3:06.57   |       55580      |      69586
       6  | 15:27.62 |    2:46.58   |       69587      |      82094
       7  | 18:14.45 |    2:39.72   |       82095      |      94091
       8  | 20:54.42 |    3:00.53   |       94092      |     107644
       9  | 23:55.20 |    2:31.65   |      107645      |     119034
      10  | 26:27.10 |    3:23.45   |      119035      |     134304
      11  | 29:50.55 |    2:37.25   |      134305      |     146104
      12  | 32:28.05 |    2:43.57   |      146105      |     158386
      13  | 35:11.62 |    2:25.20   |      158387      |     169281
      14  | 37:37.07 |    3:12.08   |      169282      |     183689
      15  | 40:49.15 |    3:29.42   |      183690      |     199406
      16  | 44:18.57 |    2:16.63   |      199407      |     209669
      17  | 46:35.45 |    2:19.72   |      209670      |     220166
      18  | 48:55.42 |    2:26.40   |      220167      |     231156
      19  | 51:22.07 |    3:10.13   |      231157      |     245419
      20  | 54:32.20 |    2:42.20   |      245420      |     257589
      21  | 57:14.40 |    2:28.50   |      257590      |     268739
Характеристики диапазона извлечения и сообщения об ошибках
Выбранный диапазон
     Имя файла B:\MP 3\France Chanson\Patrice et Mario\1988 Bravo A Patrice Et Mario (1957) (FLAC)\Patrice et Mario - Bravo A Patrice Et Mario.wav
     Пиковый уровень 64.1 %
     Качество диапазона 100.0 %
     CRC копии 67E930F9
     Копирование... OK
Ошибок не произошло
AccurateRip: сводка
Трек  1  нет в базе данных
Трек  2  нет в базе данных
Трек  3  нет в базе данных
Трек  4  нет в базе данных
Трек  5  нет в базе данных
Трек  6  нет в базе данных
Трек  7  нет в базе данных
Трек  8  нет в базе данных
Трек  9  нет в базе данных
Трек 10  нет в базе данных
Трек 11  нет в базе данных
Трек 12  нет в базе данных
Трек 13  нет в базе данных
Трек 14  нет в базе данных
Трек 15  нет в базе данных
Трек 16  нет в базе данных
Трек 17  нет в базе данных
Трек 18  нет в базе данных
Трек 19  нет в базе данных
Трек 20  нет в базе данных
Трек 21  нет в базе данных
Ни одного трека нет в базе AccurateRip
Конец отчёта
Правила, инструкции, FAQ!!!
Торрент  Добавлен [01 янв 2020, 22:59] Скачать торрент Магнет ссылка
Скачать торрент
[ Размер 13.08 КБ / Просмотров 5 ]

Статус
Проверен 
 
Размер  313.08 МБ
Приватный: Нет (DHT включён)
.torrent скачан  0
 


     Отправить личное сообщение
   
Страница 1 из 1
Показать сообщения за:  Поле сортировки  
Начать новую тему Ответить на тему


Сейчас этот форум просматривают: нет зарегистрированных пользователей и гости: 0


Вы не можете начинать темы
Вы не можете отвечать на сообщения
Вы не можете редактировать свои сообщения
Вы не можете удалять свои сообщения
Вы не можете добавлять вложения

Перейти:  
cron