Начать новую тему Ответить на тему
Статистика раздачи
Размер: 334.43 МБ | Добавлен: 01 янв 2020, 23:02 | Скачали: 1
Сидеров: 5  [0 байт/сек]    Личеров: 1  [0 байт/сек]
Пред. тема | След. тема 

Автор
Сообщение

СообщениеДобавлено: 01 янв 2020, 23:02 

Ответить с цитатой 

Mireille Mathieu / Chante Piaf
Жанр: Chanson
Страна-производитель диска: EU
Год издания: 2012
Издатель (лейбл): Ariola
Номер по каталогу: 88725 44439 2
Аудиокодек: FLAC (*.flac)
Тип рипа: tracks+.cue
Битрейт аудио: lossless
Продолжительность: 00:52:04
Источник (релизер): Мой релиз
Наличие сканов в содержимом раздачи: да
Треклист:
01 - À quoi ça sert l’amour
Michel Emer - Michel Emer
02 - La vie en rose (93)
Édith Piaf - Louiguy
03 - L'accordéoniste
Michel Emer - Michel Emer
04 - Exodus
Eddy Marnay - Ernest Gold
05 - Jezebel
Charles Aznavour - Wayne Shanklin
06 - Padam-Padam (93)
Henri Contet - Norbert Glanzberg
07 - Non, je ne regrette rien (93)
Michael Vaucaire - Charles Dumont
08 - Sous le ciel de Paris
Jean Dréjac - Hubert Giraud
09 - La foule
Michel Rivgauche - Angel Cabral
10 - Milord (93)
Georges Moustaki - Marguerite Monnot
11 - L'homme à la moto
M. Stoller - J. Leiber
12 - Mon manège à moi
Jean Constantin - Norbert Glanzberg
13 - Mon Dieu (93)
Michel Vaucaire - Charles Dumont
14 - Hymne à l'amour (93)
Édith Piaf - Marguerite Monnot
15 - Les trois cloches
Jean Villard - Jean Villard
16 - La goualante du Pauvre Jean
René Rouzaud - Marguerite Monnot
Код:
Exact Audio Copy V1.0 beta 3 from 29. August 2011
Отчёт EAC об извлечении, выполненном 4. ноября 2012, 18:50
Mireille Mathieu / Chante Piaf
Дисковод: TSSTcorpCDDVDW SH-222BB   Adapter: 0  ID: 2
Режим чтения                 : Достоверность
Использование точного потока : Да
Отключение кэша аудио        : Да
Использование указателей C2  : Нет
Коррекция смещения при чтении                     : 6
Способность читать области Lead-in и Lead-out     : Нет
Заполнение пропущенных сэмплов тишиной            : Да
Удаление блоков с тишиной в начале и конце        : Нет
При вычислениях CRC использовались нулевые сэмплы : Да
Интерфейс                                         : Установленный внешний ASPI-интерфейс
Обработка зазоров                                 : Добавлено к предыдущему треку
Выходной формат          : Пользовательский кодировщик
Выбранный битрейт        : 768 kBit/s
Качество                 : Высокий
Добавление ID3-тега      : Нет
Утилита сжатия           : C:\Program Files (x86)\Exact Audio Copy\FLAC\FLAC.EXE
Дополнительные параметры : -V -8 -T "Genre=%genre%" -T "Artist=%artist%" -T "Title=%title%" -T "Album=%albumtitle%" -T "Date=%year%" -T "Tracknumber=%tracknr%" -T "Comment=%comment%" %source%
TOC извлечённого CD
     Трек |   Старт  | Длительность | Начальный сектор | Конечный сектор
    ---------------------------------------------------------------------
       1  |  0:00.00 |    2:28.24   |           0      |      11123
       2  |  2:28.24 |    3:47.33   |       11124      |      28181
       3  |  6:15.57 |    3:27.09   |       28182      |      43715
       4  |  9:42.66 |    3:46.19   |       43716      |      60684
       5  | 13:29.10 |    3:47.23   |       60685      |      77732
       6  | 17:16.33 |    2:56.08   |       77733      |      90940
       7  | 20:12.41 |    2:24.18   |       90941      |     101758
       8  | 22:36.59 |    3:18.05   |      101759      |     116613
       9  | 25:54.64 |    3:06.08   |      116614      |     130571
      10  | 29:00.72 |    4:44.26   |      130572      |     151897
      11  | 33:45.23 |    2:06.74   |      151898      |     161421
      12  | 35:52.22 |    3:01.35   |      161422      |     175031
      13  | 38:53.57 |    2:59.13   |      175032      |     188469
      14  | 41:52.70 |    3:35.62   |      188470      |     204656
      15  | 45:28.57 |    4:32.57   |      204657      |     225113
      16  | 50:01.39 |    2:02.60   |      225114      |     234323
Трек  1
     Имя файла E:\FTP\PUB\Music\Worldmusic\Mireille Mathieu\2012 - Mireille Mathieu chante Piaf (FRA CD)\01 - A quoi ca sert l'amour.wav
     Длина предзазора  0:00:02.00
     Пиковый уровень 99.0 %
     Скорость извлечения 4.0 X
     Качество трека 100.0 %
     CRC теста 71D68D12
     CRC копии 71D68D12
     Копирование... OK
Трек  2
     Имя файла E:\FTP\PUB\Music\Worldmusic\Mireille Mathieu\2012 - Mireille Mathieu chante Piaf (FRA CD)\02 - La vie en rose.wav
     Длина предзазора  0:00:01.25
     Пиковый уровень 99.0 %
     Скорость извлечения 4.7 X
     Качество трека 100.0 %
     CRC теста 2F6FC740
     CRC копии 2F6FC740
     Копирование... OK
Трек  3
     Имя файла E:\FTP\PUB\Music\Worldmusic\Mireille Mathieu\2012 - Mireille Mathieu chante Piaf (FRA CD)\03 - L'accordeoniste.wav
     Длина предзазора  0:00:02.17
     Пиковый уровень 99.3 %
     Скорость извлечения 4.4 X
     Качество трека 99.9 %
     CRC теста D34F727A
     CRC копии D34F727A
     Копирование... OK
Трек  4
     Имя файла E:\FTP\PUB\Music\Worldmusic\Mireille Mathieu\2012 - Mireille Mathieu chante Piaf (FRA CD)\04 - Exodus.wav
     Длина предзазора  0:00:01.58
     Пиковый уровень 99.3 %
     Скорость извлечения 5.5 X
     Качество трека 100.0 %
     CRC теста 247C7DA1
     CRC копии 247C7DA1
     Копирование... OK
Трек  5
     Имя файла E:\FTP\PUB\Music\Worldmusic\Mireille Mathieu\2012 - Mireille Mathieu chante Piaf (FRA CD)\05 - Jezebel.wav
     Длина предзазора  0:00:02.50
     Пиковый уровень 99.0 %
     Скорость извлечения 5.8 X
     Качество трека 100.0 %
     CRC теста 831E0C8F
     CRC копии 831E0C8F
     Копирование... OK
Трек  6
     Имя файла E:\FTP\PUB\Music\Worldmusic\Mireille Mathieu\2012 - Mireille Mathieu chante Piaf (FRA CD)\06 - Padam, Padam.wav
     Длина предзазора  0:00:02.15
     Пиковый уровень 99.2 %
     Скорость извлечения 5.9 X
     Качество трека 100.0 %
     CRC теста 45C6F6EC
     CRC копии 45C6F6EC
     Копирование... OK
Трек  7
     Имя файла E:\FTP\PUB\Music\Worldmusic\Mireille Mathieu\2012 - Mireille Mathieu chante Piaf (FRA CD)\07 - Non, je ne regrette rien.wav
     Длина предзазора  0:00:02.01
     Пиковый уровень 99.0 %
     Скорость извлечения 5.9 X
     Качество трека 100.0 %
     CRC теста 35607B89
     CRC копии 35607B89
     Копирование... OK
Трек  8
     Имя файла E:\FTP\PUB\Music\Worldmusic\Mireille Mathieu\2012 - Mireille Mathieu chante Piaf (FRA CD)\08 - Sous le ciel de Paris.wav
     Длина предзазора  0:00:02.48
     Пиковый уровень 99.0 %
     Скорость извлечения 6.5 X
     Качество трека 100.0 %
     CRC теста 96ADB781
     CRC копии 96ADB781
     Копирование... OK
Трек  9
     Имя файла E:\FTP\PUB\Music\Worldmusic\Mireille Mathieu\2012 - Mireille Mathieu chante Piaf (FRA CD)\09 - La foule.wav
     Длина предзазора  0:00:02.22
     Пиковый уровень 99.0 %
     Скорость извлечения 6.7 X
     Качество трека 100.0 %
     CRC теста B8C9D454
     CRC копии B8C9D454
     Копирование... OK
Трек 10
     Имя файла E:\FTP\PUB\Music\Worldmusic\Mireille Mathieu\2012 - Mireille Mathieu chante Piaf (FRA CD)\10 - Milord.wav
     Длина предзазора  0:00:01.55
     Пиковый уровень 99.0 %
     Скорость извлечения 7.4 X
     Качество трека 100.0 %
     CRC теста C2E906A1
     CRC копии C2E906A1
     Копирование... OK
Трек 11
     Имя файла E:\FTP\PUB\Music\Worldmusic\Mireille Mathieu\2012 - Mireille Mathieu chante Piaf (FRA CD)\11 - L'homme a la moto.wav
     Длина предзазора  0:00:01.67
     Пиковый уровень 99.0 %
     Скорость извлечения 6.5 X
     Качество трека 100.0 %
     CRC теста 471BBD28
     CRC копии 471BBD28
     Копирование... OK
Трек 12
     Имя файла E:\FTP\PUB\Music\Worldmusic\Mireille Mathieu\2012 - Mireille Mathieu chante Piaf (FRA CD)\12 - Mon manege a moi.wav
     Длина предзазора  0:00:01.23
     Пиковый уровень 99.0 %
     Скорость извлечения 7.2 X
     Качество трека 100.0 %
     CRC теста 10591D09
     CRC копии 10591D09
     Копирование... OK
Трек 13
     Имя файла E:\FTP\PUB\Music\Worldmusic\Mireille Mathieu\2012 - Mireille Mathieu chante Piaf (FRA CD)\13 - Mon dieu.wav
     Длина предзазора  0:00:01.39
     Пиковый уровень 99.9 %
     Скорость извлечения 7.4 X
     Качество трека 100.0 %
     CRC теста C520C7C8
     CRC копии C520C7C8
     Копирование... OK
Трек 14
     Имя файла E:\FTP\PUB\Music\Worldmusic\Mireille Mathieu\2012 - Mireille Mathieu chante Piaf (FRA CD)\14 - L'hymne a l'amour.wav
     Длина предзазора  0:00:02.37
     Пиковый уровень 99.0 %
     Скорость извлечения 7.8 X
     Качество трека 100.0 %
     CRC теста 3671C35F
     CRC копии 3671C35F
     Копирование... OK
Трек 15
     Имя файла E:\FTP\PUB\Music\Worldmusic\Mireille Mathieu\2012 - Mireille Mathieu chante Piaf (FRA CD)\15 - Les trois cloches.wav
     Длина предзазора  0:00:02.60
     Пиковый уровень 99.6 %
     Скорость извлечения 8.3 X
     Качество трека 100.0 %
     CRC теста 170E96DB
     CRC копии 170E96DB
     Копирование... OK
Трек 16
     Имя файла E:\FTP\PUB\Music\Worldmusic\Mireille Mathieu\2012 - Mireille Mathieu chante Piaf (FRA CD)\16 - La goualante du Pauvre Jean.wav
     Длина предзазора  0:00:02.11
     Пиковый уровень 99.0 %
     Скорость извлечения 7.3 X
     Качество трека 100.0 %
     CRC теста 73CD6CC8
     CRC копии 73CD6CC8
     Копирование... OK
Ошибок не произошло
Конец отчёта
---- CUETools DB Plugin V2.1.3
[CTDB TOCID: ORb0Td4DHdVe6azLgY8iLkisnGM-] disk not present in database, Submit result: ORb0Td4DHdVe6azLgY8iLkisnGM- has been uploaded
==== Контрольная сумма отчёта 5FDC4B1D8829C313FEAC343822BF488CACB456846D04DFAFD0B2313E1457A059 ====
Код:
REM GENRE Chanson
REM DATE 2012
REM DISCID BA0C3410
REM COMMENT "ExactAudioCopy v1.0b3"
CATALOG 0887254443926
PERFORMER "Mireille Mathieu"
TITLE "Chante Piaf"
FILE "01 - A quoi ca sert l'amour.wav" WAVE
  TRACK 01 AUDIO
    TITLE "A quoi ca sert l'amour"
    PERFORMER "Mireille Mathieu"
    ISRC FRW141200001
    INDEX 01 00:00:00
  TRACK 02 AUDIO
    TITLE "La vie en rose"
    PERFORMER "Mireille Mathieu"
    ISRC FRW149300002
    INDEX 00 02:26:74
FILE "02 - La vie en rose.wav" WAVE
    INDEX 01 00:00:00
  TRACK 03 AUDIO
    TITLE "L'accordeoniste"
    PERFORMER "Mireille Mathieu"
    ISRC FRW149300011
    INDEX 00 03:45:16
FILE "03 - L'accordeoniste.wav" WAVE
    INDEX 01 00:00:00
  TRACK 04 AUDIO
    TITLE "Exodus"
    PERFORMER "Mireille Mathieu"
    ISRC FRW149300006
    INDEX 00 03:25:26
FILE "04 - Exodus.wav" WAVE
    INDEX 01 00:00:00
  TRACK 05 AUDIO
    TITLE "Jezebel"
    PERFORMER "Mireille Mathieu"
    ISRC FRW149300010
    INDEX 00 03:43:44
FILE "05 - Jezebel.wav" WAVE
    INDEX 01 00:00:00
  TRACK 06 AUDIO
    TITLE "Padam, Padam"
    PERFORMER "Mireille Mathieu"
    ISRC FRW149300007
    INDEX 00 03:45:08
FILE "06 - Padam, Padam.wav" WAVE
    INDEX 01 00:00:00
  TRACK 07 AUDIO
    TITLE "Non, je ne regrette rien"
    PERFORMER "Mireille Mathieu"
    ISRC FRW149300013
    INDEX 00 02:54:07
FILE "07 - Non, je ne regrette rien.wav" WAVE
    INDEX 01 00:00:00
  TRACK 08 AUDIO
    TITLE "Sous le ciel de Paris"
    PERFORMER "Mireille Mathieu"
    ISRC FRW149300003
    INDEX 00 02:21:45
FILE "08 - Sous le ciel de Paris.wav" WAVE
    INDEX 01 00:00:00
  TRACK 09 AUDIO
    TITLE "La foule"
    PERFORMER "Mireille Mathieu"
    ISRC FRW149300001
    INDEX 00 03:15:58
FILE "09 - La foule.wav" WAVE
    INDEX 01 00:00:00
  TRACK 10 AUDIO
    TITLE "Milord"
    PERFORMER "Mireille Mathieu"
    ISRC FRW149300012
    INDEX 00 03:04:28
FILE "10 - Milord.wav" WAVE
    INDEX 01 00:00:00
  TRACK 11 AUDIO
    TITLE "L'homme a la moto"
    PERFORMER "Mireille Mathieu"
    ISRC FRW149300005
    INDEX 00 04:42:34
FILE "11 - L'homme a la moto.wav" WAVE
    INDEX 01 00:00:00
  TRACK 12 AUDIO
    TITLE "Mon manege a moi"
    PERFORMER "Mireille Mathieu"
    ISRC FRW149300009
    INDEX 00 02:05:51
FILE "12 - Mon manege a moi.wav" WAVE
    INDEX 01 00:00:00
  TRACK 13 AUDIO
    TITLE "Mon dieu"
    PERFORMER "Mireille Mathieu"
    ISRC FRW149300004
    INDEX 00 02:59:71
FILE "13 - Mon dieu.wav" WAVE
    INDEX 01 00:00:00
  TRACK 14 AUDIO
    TITLE "L'hymne a l'amour"
    PERFORMER "Mireille Mathieu"
    ISRC FRW149300008
    INDEX 00 02:56:51
FILE "14 - L'hymne a l'amour.wav" WAVE
    INDEX 01 00:00:00
  TRACK 15 AUDIO
    TITLE "Les trois cloches"
    PERFORMER "Mireille Mathieu"
    ISRC FRW148500108
    INDEX 00 03:33:02
FILE "15 - Les trois cloches.wav" WAVE
    INDEX 01 00:00:00
  TRACK 16 AUDIO
    TITLE "La goualante du Pauvre Jean"
    PERFORMER "Mireille Mathieu"
    ISRC FRW141200002
    INDEX 00 04:30:46
FILE "16 - La goualante du Pauvre Jean.wav" WAVE
    INDEX 01 00:00:00
Ещё один альбом Мирей Матье "Chante Piaf". Выпущен в связи с 50-летней годовщины со дня смерти Эдит Пиаф.
За основу взят одноимённый альбом 1993 года, однако в этом альбоме имеются две ранее никогда не издававшиеся песни:
A Quoi ça Sert L'amour и La Goualante Du Pauvre Jean.
Плюс добавили песню Les Trois Cloches из альбома Les grandes chansons francaises.
Правила, инструкции, FAQ!!!
Торрент  Добавлен [01 янв 2020, 23:02] Скачать торрент Магнет ссылка
Скачать торрент
[ Размер 14.74 КБ / Просмотров 13 ]

Статус
Проверен 
 
Размер  334.43 МБ
Приватный: Нет (DHT включён)
.torrent скачан  1
 


     Отправить личное сообщение
   
Страница 1 из 1
Показать сообщения за:  Поле сортировки  
Начать новую тему Ответить на тему


Сейчас этот форум просматривают: нет зарегистрированных пользователей и гости: 0


Вы не можете начинать темы
Вы не можете отвечать на сообщения
Вы не можете редактировать свои сообщения
Вы не можете удалять свои сообщения
Вы не можете добавлять вложения

Перейти:  
cron