Начать новую тему Ответить на тему
Статистика раздачи
Размер: 257.5 МБ | Добавлен: 01 янв 2020, 23:00 | Скачали: 0
Сидеров: 0  [0 байт/сек]    Личеров: 0  [0 байт/сек]
Пред. тема | След. тема 

Автор
Сообщение

СообщениеДобавлено: 01 янв 2020, 23:00 

Ответить с цитатой 

Milva / Tausendundeine Nacht
Жанр: Chanson
Страна-производитель диска: Germany
Год издания диска: 1995
Издатель (лейбл): Polydor GMBH
Аудио кодек: FLAC (*.flac)
Тип рипа: image+.cue
Битрейт аудио: lossless
Источник (релизер): Личная коллекция
Наличие сканов в содержимом раздачи: да
Треклист:
01. Milva - Tausendundeine Nacht [0:05:15.62]
02. Flauten Und Stürme [0:04:28.20]
03. Du Nennst Es Liebe [0:02:48.55]
04. Anna, Nicht Weinen [0:04:18.35]
05. Frühlingserwachen [0:03:52.15]
06. Wärstdu Doch Hier [0:04:26.73]
07. Du Musst Verliebt Sein [0:03:11.35]
08. Sag Ihr Die Wahrheit [0:04:28.02]
09. Du Kennst Dich Aus [0:04:10.55]
10. Der Journalist [0:02:35.48]
Код:
Exact Audio Copy V1.0 beta 1 from 15. November 2010
EAC extraction logfile from 24. December 2010, 7:36
Milva / Tausendundeine Nacht
Used drive  : TSSTcorpCD-RW   TS-H292B   Adapter: 1  ID: 0
Read mode               : Secure
Utilize accurate stream : Yes
Defeat audio cache      : Yes
Make use of C2 pointers : No
Read offset correction                      : 145
Overread into Lead-In and Lead-Out          : No
Fill up missing offset samples with silence : Yes
Delete leading and trailing silent blocks   : No
Null samples used in CRC calculations       : Yes
Used interface                              : Installed external ASPI interface
Used output format : Internal WAV Routines
Sample format      : 44.100 Hz; 16 Bit; Stereo
TOC of the extracted CD
     Track |   Start  |  Length  | Start sector | End sector
    ---------------------------------------------------------
        1  |  0:00.00 |  5:15.62 |         0    |    23686
        2  |  5:15.62 |  4:28.20 |     23687    |    43806
        3  |  9:44.07 |  2:48.55 |     43807    |    56461
        4  | 12:32.62 |  4:18.35 |     56462    |    75846
        5  | 16:51.22 |  3:52.15 |     75847    |    93261
        6  | 20:43.37 |  4:26.73 |     93262    |   113284
        7  | 25:10.35 |  3:11.35 |    113285    |   127644
        8  | 28:21.70 |  4:28.02 |    127645    |   147746
        9  | 32:49.72 |  4:10.55 |    147747    |   166551
       10  | 37:00.52 |  2:35.48 |    166552    |   178224
Range status and errors
Selected range
     Filename C:\Documents and Settings\Owner\Desktop\Milva - Tausendundeine Nacht.wav
     Peak level 97.7 %
     Extraction speed 0.4 X
     Range quality 100.0 %
     Test CRC A0692D58
     Copy CRC A0692D58
     Copy OK
No errors occurred
AccurateRip summary
Track  1  not present in database
Track  2  not present in database
Track  3  not present in database
Track  4  not present in database
Track  5  not present in database
Track  6  not present in database
Track  7  not present in database
Track  8  not present in database
Track  9  not present in database
Track 10  not present in database
None of the tracks are present in the AccurateRip database
End of status report
Код:
REM GENRE Acoustic
REM DATE 1995
REM DISCID 6F09480A
REM COMMENT "ExactAudioCopy v1.0b1"
PERFORMER "Milva"
TITLE "Tausendundeine Nacht"
FILE "Milva - Tausendundeine Nacht.wav" WAVE
  TRACK 01 AUDIO
    TITLE "01 Tausendundeine Nacht"
    PERFORMER "Milva"
    INDEX 01 00:00:00
  TRACK 02 AUDIO
    TITLE "Flauten Und Sturme"
    PERFORMER "Milva"
    INDEX 00 05:13:10
    INDEX 01 05:15:62
  TRACK 03 AUDIO
    TITLE "Du Nennst Es Liebe"
    PERFORMER "Milva"
    INDEX 00 09:41:30
    INDEX 01 09:44:07
  TRACK 04 AUDIO
    TITLE "Anna, Nicht Weinen"
    PERFORMER "Milva"
    INDEX 00 12:30:10
    INDEX 01 12:32:62
  TRACK 05 AUDIO
    TITLE "Fruhlingserwachen"
    PERFORMER "Milva"
    INDEX 00 16:48:42
    INDEX 01 16:51:22
  TRACK 06 AUDIO
    TITLE "Warstdu Doch Hier"
    PERFORMER "Milva"
    INDEX 00 20:40:60
    INDEX 01 20:43:37
  TRACK 07 AUDIO
    TITLE "Du Musst Verliebt Sein"
    PERFORMER "Milva"
    INDEX 00 25:07:57
    INDEX 01 25:10:35
  TRACK 08 AUDIO
    TITLE "Sag Ihr Die Wahrheit"
    PERFORMER "Milva"
    INDEX 00 28:19:17
    INDEX 01 28:21:70
  TRACK 09 AUDIO
    TITLE "Du Kennst Dich Aus"
    PERFORMER "Milva"
    INDEX 00 32:47:20
    INDEX 01 32:49:72
  TRACK 10 AUDIO
    TITLE "Der Journalist"
    PERFORMER "Milva"
    INDEX 00 36:58:00
    INDEX 01 37:00:52
Правила, инструкции, FAQ!!!
Торрент  Добавлен [01 янв 2020, 23:00] Скачать торрент Магнет ссылка
Скачать торрент
[ Размер 10.84 КБ / Просмотров 7 ]

Статус
Проверен 
 
Размер  257.5 МБ
Приватный: Нет (DHT включён)
.torrent скачан  0
 


     Отправить личное сообщение
   
Страница 1 из 1
Показать сообщения за:  Поле сортировки  
Начать новую тему Ответить на тему


Сейчас этот форум просматривают: нет зарегистрированных пользователей и гости: 0


Вы не можете начинать темы
Вы не можете отвечать на сообщения
Вы не можете редактировать свои сообщения
Вы не можете удалять свои сообщения
Вы не можете добавлять вложения

Перейти:  
cron