Начать новую тему Ответить на тему
Статистика раздачи
Размер: 392.58 МБ | Добавлен: 01 янв 2020, 22:50 | Скачали: 0
Сидеров: 0  [0 байт/сек]    Личеров: 0  [0 байт/сек]
Пред. тема | След. тема 

Автор
Сообщение

СообщениеДобавлено: 01 янв 2020, 22:50 

Ответить с цитатой 

Marlene Dietrich - Der Blonde Engel
Страна: Германия
Жанр: chanson
Год выпуска: 2001
Формат: APE (image + .cue)
Битрейт аудио: lossless
Продолжительность: 79 мин.
Трэклист:
1 Nimm Dich in acht vor blonden Frau'n 3:16
2 Ich bin die fesche Lola 1:37
3 Ich bin von Kopf bis Fuss auf Liebe eingestellt 2:39
4 Ich weiss nicht, zu wem ich gehore 2:31
5 Die Welt war jung (Le Chevalier De Paris) 3:24
6 Allein in der grossen Stadt 5:01
7 Johnny, wenn Du Geburtstag hast 2:58
8 Kinder, heut' abend da such ich mir was aus 2:04
9 Wer wird denn weinen, wenn man auseinander geht 1:06
10 Peter 3:28
11 Mein blondes Baby 3:56
12 Paff, der Zauberdrachen 4:12
13 Sch... Kleines Baby (Hush, Little Baby) 2:35
14 Wenn der Sommer wieder einzieht 3:07
15 Marie, Marie 4:38
16 Wenn ich mir was wunschen durfte 3:26
17 Auf der Mundharmonika 2:42
18 Lili Marleen 3:01
19 In den Kasernen 3:18
20 Sag mir, wo die Blumen sind 3:40
21 Die Antwort weiss ganz allein der Wind 4:02
22 Ich werde Dich lieben (Theme For Young Lovers) 2:50
23 Ich hab' noch einen Koffer in Berlin 3:06
24 Mutter, hast Du mir vergeben 4:14
25 Der Trommelmann (The Little Drummer Boy) 2:43
Exact Audio Copy V0.99 prebeta 4 from 23. January 2008
EAC extraction logfile from 4. September 2008, 20:42
Marlene Dietrich / Der Blonde Engel
Used drive : PIONEER DVD-RW DVR-112D Adapter: 0 ID: 0
Read mode : Secure
Utilize accurate stream : Yes
Defeat audio cache : Yes
Make use of C2 pointers : No
Read offset correction : 48
Overread into Lead-In and Lead-Out : No
Fill up missing offset samples with silence : Yes
Delete leading and trailing silent blocks : No
Null samples used in CRC calculations : Yes
Used interface : Installed external ASPI interface
Used output format : Internal WAV Routines
Sample format : 44.100 Hz; 16 Bit; Stereo
TOC of the extracted CD
Track | Start | Length | Start sector | End sector
---------------------------------------------------------
1 | 0:00.00 | 3:16.13 | 0 | 14712
2 | 3:16.13 | 1:37.35 | 14713 | 22022
3 | 4:53.48 | 2:39.42 | 22023 | 33989
4 | 7:33.15 | 2:31.05 | 33990 | 45319
5 | 10:04.20 | 3:24.08 | 45320 | 60627
6 | 13:28.28 | 5:01.15 | 60628 | 83217
7 | 18:29.43 | 2:58.05 | 83218 | 96572
8 | 21:27.48 | 2:04.10 | 96573 | 105882
9 | 23:31.58 | 1:05.47 | 105883 | 110804
10 | 24:37.30 | 3:28.03 | 110805 | 126407
11 | 28:05.33 | 3:56.22 | 126408 | 144129
12 | 32:01.55 | 4:12.40 | 144130 | 163069
13 | 36:14.20 | 2:35.40 | 163070 | 174734
14 | 38:49.60 | 3:06.63 | 174735 | 188747
15 | 41:56.48 | 4:38.12 | 188748 | 209609
16 | 46:34.60 | 3:26.08 | 209610 | 225067
17 | 50:00.68 | 2:42.20 | 225068 | 237237
18 | 52:43.13 | 3:01.05 | 237238 | 250817
19 | 55:44.18 | 3:17.65 | 250818 | 265657
20 | 59:02.08 | 3:39.52 | 265658 | 282134
21 | 62:41.60 | 4:01.70 | 282135 | 300279
22 | 66:43.55 | 2:49.73 | 300280 | 313027
23 | 69:33.53 | 3:05.70 | 313028 | 326972
24 | 72:39.48 | 4:13.47 | 326973 | 345994
25 | 76:53.20 | 2:42.70 | 345995 | 358214
Range status and errors
Selected range
Filename C:\BITTORRENT DOWNLOADS\Marlene Dietrich - Der Blonde Engel\Marlene Dietrich - Der Blonde Engel.wav
Peak level 99.7 %
Range quality 100.0 %
Copy CRC 2AD1C2AD
Copy OK
No errors occurred
AccurateRip summary
Track 1 not present in database
Track 2 not present in database
Track 3 not present in database
Track 4 not present in database
Track 5 not present in database
Track 6 not present in database
Track 7 not present in database
Track 8 not present in database
Track 9 not present in database
Track 10 not present in database
Track 11 not present in database
Track 12 not present in database
Track 13 not present in database
Track 14 not present in database
Track 15 not present in database
Track 16 not present in database
Track 17 not present in database
Track 18 not present in database
Track 19 not present in database
Track 20 not present in database
Track 21 not present in database
Track 22 not present in database
Track 23 not present in database
Track 24 not present in database
Track 25 not present in database
None of the tracks are present in the AccurateRip database
End of status report
Доп. информация:
Сканы буклета прилагаются.
Правила, инструкции, FAQ!!!
Торрент  Добавлен [01 янв 2020, 22:50] Скачать торрент Магнет ссылка
Скачать торрент
[ Размер 16.45 КБ / Просмотров 2 ]

Статус
Проверен 
 
Размер  392.58 МБ
Приватный: Нет (DHT включён)
.torrent скачан  0
 


     Отправить личное сообщение
   
Страница 1 из 1
Показать сообщения за:  Поле сортировки  
Начать новую тему Ответить на тему


Сейчас этот форум просматривают: нет зарегистрированных пользователей и гости: 0


Вы не можете начинать темы
Вы не можете отвечать на сообщения
Вы не можете редактировать свои сообщения
Вы не можете удалять свои сообщения
Вы не можете добавлять вложения

Перейти:  
cron