Начать новую тему Ответить на тему
Статистика раздачи
Размер: 397.87 МБ | Добавлен: 01 янв 2020, 23:05 | Скачали: 0
Сидеров: 1  [0 байт/сек]    Личеров: 0  [0 байт/сек]
Пред. тема | След. тема 

Автор
Сообщение

СообщениеДобавлено: 01 янв 2020, 23:05 

Ответить с цитатой 

Lynda Lemay - Feutres et pastels
Жанр: Chanson
Носитель: CD
Страна-производитель диска: Canada
Год издания: 2013
Издатель (лейбл): Warner Music Canada
Страна: Canada
Аудиокодек: FLAC (*.flac)
Тип рипа: tracks+.cue
Битрейт аудио: lossless
Продолжительность: 01:01:59
Источник (релизер): magesy
Наличие сканов в содержимом раздачи: да
Треклист:
1.Je tourne, je tourne 2:02
2.Comment ça va 3:42
3.Cagoule 3:05
4.Quand j'étais p'tit gars 5:31
5.Doux doux le méchant loup 3:46
6.Reste avec elle 3:50
7.Les petits et les grands 3:23
8.L'architecte 3:51
9.Café 3:28
10.N'importe qui 3:46
11.Soupe chaude 3:30
12.Le petit chalet de bois 3:25
13.Le grand tableau vert 5:17
14.Attendre son pays 2:57
15.Au ciel ou à la vie 3:20
16.Emmanuelle et le fils du roi du ciel 3:43
17.La femme chauve-souris 3:14
Lynda Lemay - Reste avec elle [Clip Officiel]
Lynda Lemay - Je tourne, je tourne [en live dans le Grand Studio RTL]
.
Код:
Exact Audio Copy V1.0 beta 3 from 29. August 2011
EAC extraction logfile from 27. November 2013, 15:50
Linda Lemay / Feutres et Pastels
Used drive  : SlimtypeDVD A  DS8A4SH   Adapter: 0  ID: 1
Read mode               : Secure
Utilize accurate stream : Yes
Defeat audio cache      : Yes
Make use of C2 pointers : No
Read offset correction                      : 6
Overread into Lead-In and Lead-Out          : No
Fill up missing offset samples with silence : Yes
Delete leading and trailing silent blocks   : No
Null samples used in CRC calculations       : Yes
Used interface                              : Native Win32 interface for Win NT & 2000
Gap handling                                : Appended to previous track
Used output format              : User Defined Encoder
Selected bitrate                : 1024 kBit/s
Quality                         : High
Add ID3 tag                     : No
Command line compressor         : C:\Program Files (x86)\Exact Audio Copy\FLAC\FLAC.EXE
Additional command line options : -8 -V -T "ARTIST=%artist%" -T "TITLE=%title%" -T "ALBUM=%albumtitle%" -T "DATE=%year%" -T "TRACKNUMBER=%tracknr%" -T "GENRE=%genre%" -T "PERFORMER=%albuminterpret%" -T "COMPOSER=%composer%" %haslyrics%--tag-from-file=LYRICS="%lyricsfile%"%haslyrics% -T "ALBUMARTIST=%albumartist%" -T "DISCNUMBER=%cdnumber%" -T "TOTALDISCS=%totalcds%" -T "TOTALTRACKS=%numtracks%" -T "COMMENT=%comment%" %source% -o %dest%
TOC of the extracted CD
     Track |   Start  |  Length  | Start sector | End sector
    ---------------------------------------------------------
        1  |  0:00.00 |  2:02.72 |         0    |     9221
        2  |  2:02.72 |  3:42.74 |      9222    |    25945
        3  |  5:45.71 |  3:05.46 |     25946    |    39866
        4  |  8:51.42 |  5:31.56 |     39867    |    64747
        5  | 14:23.23 |  3:46.51 |     64748    |    81748
        6  | 18:09.74 |  3:50.33 |     81749    |    99031
        7  | 22:00.32 |  3:23.61 |     99032    |   114317
        8  | 25:24.18 |  3:51.03 |    114318    |   131645
        9  | 29:15.21 |  3:28.18 |    131646    |   147263
       10  | 32:43.39 |  3:46.48 |    147264    |   164261
       11  | 36:30.12 |  3:30.09 |    164262    |   180020
       12  | 40:00.21 |  3:25.65 |    180021    |   195460
       13  | 43:26.11 |  5:17.54 |    195461    |   219289
       14  | 48:43.65 |  2:57.25 |    219290    |   232589
       15  | 51:41.15 |  3:20.11 |    232590    |   247600
       16  | 55:01.26 |  3:43.18 |    247601    |   264343
       17  | 58:44.44 |  3:14.53 |    264344    |   278946
Track  1
     Filename E:\Telechargement DD\Lynda Lemay-Feutres et Pastels-CD-FLAC-2013-StarKy22\01 - Je tourne, je tourne.wav
     Pre-gap length  0:00:02.00
     Peak level 97.6 %
     Extraction speed 2.5 X
     Track quality 100.0 %
     Test CRC FF9BF4A1
     Copy CRC FF9BF4A1
     Accurately ripped (confidence 1)  [EEBD4A0B]  (AR v2)
     Copy OK
Track  2
     Filename E:\Telechargement DD\Lynda Lemay-Feutres et Pastels-CD-FLAC-2013-StarKy22\02 - Comment ça va.wav
     Peak level 97.6 %
     Extraction speed 3.0 X
     Track quality 100.0 %
     Test CRC 8A5496D8
     Copy CRC 8A5496D8
     Accurately ripped (confidence 1)  [EF345CCC]  (AR v2)
     Copy OK
Track  3
     Filename E:\Telechargement DD\Lynda Lemay-Feutres et Pastels-CD-FLAC-2013-StarKy22\03 - Cagoule.wav
     Peak level 97.6 %
     Extraction speed 2.5 X
     Track quality 99.9 %
     Test CRC 1292F10F
     Copy CRC 1292F10F
     Accurately ripped (confidence 1)  [EE96E16D]  (AR v2)
     Copy OK
Track  4
     Filename E:\Telechargement DD\Lynda Lemay-Feutres et Pastels-CD-FLAC-2013-StarKy22\04 - Quand j'étais p'tit gars.wav
     Peak level 97.6 %
     Extraction speed 3.7 X
     Track quality 100.0 %
     Test CRC AE85EE7D
     Copy CRC AE85EE7D
     Accurately ripped (confidence 1)  [971826A5]  (AR v2)
     Copy OK
Track  5
     Filename E:\Telechargement DD\Lynda Lemay-Feutres et Pastels-CD-FLAC-2013-StarKy22\05 - Doux doux le méchant loup.wav
     Peak level 97.6 %
     Extraction speed 3.7 X
     Track quality 100.0 %
     Test CRC CFDFF502
     Copy CRC CFDFF502
     Accurately ripped (confidence 1)  [7E1ADB83]  (AR v2)
     Copy OK
Track  6
     Filename E:\Telechargement DD\Lynda Lemay-Feutres et Pastels-CD-FLAC-2013-StarKy22\06 - Reste avec elle.wav
     Peak level 97.6 %
     Extraction speed 3.9 X
     Track quality 100.0 %
     Test CRC 72A067C4
     Copy CRC 72A067C4
     Accurately ripped (confidence 1)  [6383E8A5]  (AR v2)
     Copy OK
Track  7
     Filename E:\Telechargement DD\Lynda Lemay-Feutres et Pastels-CD-FLAC-2013-StarKy22\07 - Les petits et les grands.wav
     Peak level 97.6 %
     Extraction speed 3.2 X
     Track quality 99.9 %
     Test CRC A2BB6B6A
     Copy CRC A2BB6B6A
     Accurately ripped (confidence 1)  [49822344]  (AR v2)
     Copy OK
Track  8
     Filename E:\Telechargement DD\Lynda Lemay-Feutres et Pastels-CD-FLAC-2013-StarKy22\08 - L'architecte.wav
     Peak level 97.6 %
     Extraction speed 3.6 X
     Track quality 99.9 %
     Test CRC 8968B49A
     Copy CRC 8968B49A
     Accurately ripped (confidence 1)  [89F476F2]  (AR v2)
     Copy OK
Track  9
     Filename E:\Telechargement DD\Lynda Lemay-Feutres et Pastels-CD-FLAC-2013-StarKy22\09 - Café.wav
     Peak level 97.6 %
     Extraction speed 4.4 X
     Track quality 100.0 %
     Test CRC 5EA61EB4
     Copy CRC 5EA61EB4
     Accurately ripped (confidence 1)  [07CE5975]  (AR v2)
     Copy OK
Track 10
     Filename E:\Telechargement DD\Lynda Lemay-Feutres et Pastels-CD-FLAC-2013-StarKy22\10 - N'importe qui.wav
     Peak level 97.6 %
     Extraction speed 4.6 X
     Track quality 100.0 %
     Test CRC 43EA2FD3
     Copy CRC 43EA2FD3
     Accurately ripped (confidence 1)  [C420AFC4]  (AR v2)
     Copy OK
Track 11
     Filename E:\Telechargement DD\Lynda Lemay-Feutres et Pastels-CD-FLAC-2013-StarKy22\11 - Soupe chaude.wav
     Peak level 97.6 %
     Extraction speed 3.9 X
     Track quality 99.9 %
     Test CRC A2C27004
     Copy CRC A2C27004
     Accurately ripped (confidence 1)  [2B18585F]  (AR v2)
     Copy OK
Track 12
     Filename E:\Telechargement DD\Lynda Lemay-Feutres et Pastels-CD-FLAC-2013-StarKy22\12 - Le petit chalet de bois.wav
     Peak level 97.6 %
     Extraction speed 4.8 X
     Track quality 100.0 %
     Test CRC D4C527AB
     Copy CRC D4C527AB
     Accurately ripped (confidence 1)  [2E7C5129]  (AR v2)
     Copy OK
Track 13
     Filename E:\Telechargement DD\Lynda Lemay-Feutres et Pastels-CD-FLAC-2013-StarKy22\13 - Le grand tableau vert.wav
     Peak level 97.6 %
     Extraction speed 4.6 X
     Track quality 99.9 %
     Test CRC C9AC79D8
     Copy CRC C9AC79D8
     Accurately ripped (confidence 1)  [9371E2C1]  (AR v2)
     Copy OK
Track 14
     Filename E:\Telechargement DD\Lynda Lemay-Feutres et Pastels-CD-FLAC-2013-StarKy22\14 - Attendre son pays.wav
     Peak level 97.6 %
     Extraction speed 5.0 X
     Track quality 100.0 %
     Test CRC 72DAE95B
     Copy CRC 72DAE95B
     Accurately ripped (confidence 1)  [EC6A3B84]  (AR v2)
     Copy OK
Track 15
     Filename E:\Telechargement DD\Lynda Lemay-Feutres et Pastels-CD-FLAC-2013-StarKy22\15 - Au ciel ou la vie.wav
     Peak level 97.6 %
     Extraction speed 4.2 X
     Track quality 99.9 %
     Test CRC 8A38AA29
     Copy CRC 8A38AA29
     Accurately ripped (confidence 1)  [D3F9F87C]  (AR v2)
     Copy OK
Track 16
     Filename E:\Telechargement DD\Lynda Lemay-Feutres et Pastels-CD-FLAC-2013-StarKy22\16 - Emmanuelle et le fils du roi ciel.wav
     Peak level 97.6 %
     Extraction speed 5.5 X
     Track quality 100.0 %
     Test CRC F6CAFA46
     Copy CRC F6CAFA46
     Accurately ripped (confidence 1)  [634846CE]  (AR v2)
     Copy OK
Track 17
     Filename E:\Telechargement DD\Lynda Lemay-Feutres et Pastels-CD-FLAC-2013-StarKy22\17 - La femme chauve-souris.wav
     Peak level 97.6 %
     Extraction speed 5.4 X
     Track quality 100.0 %
     Test CRC C5D77A9D
     Copy CRC C5D77A9D
     Accurately ripped (confidence 1)  [52611B5E]  (AR v2)
     Copy OK
All tracks accurately ripped
No errors occurred
End of status report
==== Log checksum 17B09B1D3AAA3FA39D8423B0018CBF222BD56469297D55782E06F520E0878B40 ====
------------------------------------------------------------
Exact Audio Copy V1.0 beta 3 from 29. August 2011
EAC extraction logfile from 27. November 2013, 15:50
Linda Lemay / Feutres et Pastels
Used drive  : SlimtypeDVD A  DS8A4SH   Adapter: 0  ID: 1
Read mode               : Secure
Utilize accurate stream : Yes
Defeat audio cache      : Yes
Make use of C2 pointers : No
Read offset correction                      : 6
Overread into Lead-In and Lead-Out          : No
Fill up missing offset samples with silence : Yes
Delete leading and trailing silent blocks   : No
Null samples used in CRC calculations       : Yes
Used interface                              : Native Win32 interface for Win NT & 2000
Gap handling                                : Appended to previous track
Used output format              : User Defined Encoder
Selected bitrate                : 1024 kBit/s
Quality                         : High
Add ID3 tag                     : No
Command line compressor         : C:\Program Files (x86)\Exact Audio Copy\FLAC\FLAC.EXE
Additional command line options : -8 -V -T "ARTIST=%artist%" -T "TITLE=%title%" -T "ALBUM=%albumtitle%" -T "DATE=%year%" -T "TRACKNUMBER=%tracknr%" -T "GENRE=%genre%" -T "PERFORMER=%albuminterpret%" -T "COMPOSER=%composer%" %haslyrics%--tag-from-file=LYRICS="%lyricsfile%"%haslyrics% -T "ALBUMARTIST=%albumartist%" -T "DISCNUMBER=%cdnumber%" -T "TOTALDISCS=%totalcds%" -T "TOTALTRACKS=%numtracks%" -T "COMMENT=%comment%" %source% -o %dest%
TOC of the extracted CD
     Track |   Start  |  Length  | Start sector | End sector
    ---------------------------------------------------------
        1  |  0:00.00 |  2:02.72 |         0    |     9221
        2  |  2:02.72 |  3:42.74 |      9222    |    25945
        3  |  5:45.71 |  3:05.46 |     25946    |    39866
        4  |  8:51.42 |  5:31.56 |     39867    |    64747
        5  | 14:23.23 |  3:46.51 |     64748    |    81748
        6  | 18:09.74 |  3:50.33 |     81749    |    99031
        7  | 22:00.32 |  3:23.61 |     99032    |   114317
        8  | 25:24.18 |  3:51.03 |    114318    |   131645
        9  | 29:15.21 |  3:28.18 |    131646    |   147263
       10  | 32:43.39 |  3:46.48 |    147264    |   164261
       11  | 36:30.12 |  3:30.09 |    164262    |   180020
       12  | 40:00.21 |  3:25.65 |    180021    |   195460
       13  | 43:26.11 |  5:17.54 |    195461    |   219289
       14  | 48:43.65 |  2:57.25 |    219290    |   232589
       15  | 51:41.15 |  3:20.11 |    232590    |   247600
       16  | 55:01.26 |  3:43.18 |    247601    |   264343
       17  | 58:44.44 |  3:14.53 |    264344    |   278946
Track  1
     Filename E:\Telechargement DD\Lynda Lemay-Feutres et Pastels-CD-FLAC-2013-StarKy22\01 - Je tourne, je tourne.wav
     Pre-gap length  0:00:02.00
     Peak level 97.6 %
     Extraction speed 2.5 X
     Track quality 100.0 %
     Test CRC FF9BF4A1
     Copy CRC FF9BF4A1
     Accurately ripped (confidence 1)  [EEBD4A0B]  (AR v2)
     Copy OK
Track  2
     Filename E:\Telechargement DD\Lynda Lemay-Feutres et Pastels-CD-FLAC-2013-StarKy22\02 - Comment ça va.wav
     Peak level 97.6 %
     Extraction speed 3.0 X
     Track quality 100.0 %
     Test CRC 8A5496D8
     Copy CRC 8A5496D8
     Accurately ripped (confidence 1)  [EF345CCC]  (AR v2)
     Copy OK
Track  3
     Filename E:\Telechargement DD\Lynda Lemay-Feutres et Pastels-CD-FLAC-2013-StarKy22\03 - Cagoule.wav
     Peak level 97.6 %
     Extraction speed 2.5 X
     Track quality 99.9 %
     Test CRC 1292F10F
     Copy CRC 1292F10F
     Accurately ripped (confidence 1)  [EE96E16D]  (AR v2)
     Copy OK
Track  4
     Filename E:\Telechargement DD\Lynda Lemay-Feutres et Pastels-CD-FLAC-2013-StarKy22\04 - Quand j'étais p'tit gars.wav
     Peak level 97.6 %
     Extraction speed 3.7 X
     Track quality 100.0 %
     Test CRC AE85EE7D
     Copy CRC AE85EE7D
     Accurately ripped (confidence 1)  [971826A5]  (AR v2)
     Copy OK
Track  5
     Filename E:\Telechargement DD\Lynda Lemay-Feutres et Pastels-CD-FLAC-2013-StarKy22\05 - Doux doux le méchant loup.wav
     Peak level 97.6 %
     Extraction speed 3.7 X
     Track quality 100.0 %
     Test CRC CFDFF502
     Copy CRC CFDFF502
     Accurately ripped (confidence 1)  [7E1ADB83]  (AR v2)
     Copy OK
Track  6
     Filename E:\Telechargement DD\Lynda Lemay-Feutres et Pastels-CD-FLAC-2013-StarKy22\06 - Reste avec elle.wav
     Peak level 97.6 %
     Extraction speed 3.9 X
     Track quality 100.0 %
     Test CRC 72A067C4
     Copy CRC 72A067C4
     Accurately ripped (confidence 1)  [6383E8A5]  (AR v2)
     Copy OK
Track  7
     Filename E:\Telechargement DD\Lynda Lemay-Feutres et Pastels-CD-FLAC-2013-StarKy22\07 - Les petits et les grands.wav
     Peak level 97.6 %
     Extraction speed 3.2 X
     Track quality 99.9 %
     Test CRC A2BB6B6A
     Copy CRC A2BB6B6A
     Accurately ripped (confidence 1)  [49822344]  (AR v2)
     Copy OK
Track  8
     Filename E:\Telechargement DD\Lynda Lemay-Feutres et Pastels-CD-FLAC-2013-StarKy22\08 - L'architecte.wav
     Peak level 97.6 %
     Extraction speed 3.6 X
     Track quality 99.9 %
     Test CRC 8968B49A
     Copy CRC 8968B49A
     Accurately ripped (confidence 1)  [89F476F2]  (AR v2)
     Copy OK
Track  9
     Filename E:\Telechargement DD\Lynda Lemay-Feutres et Pastels-CD-FLAC-2013-StarKy22\09 - Café.wav
     Peak level 97.6 %
     Extraction speed 4.4 X
     Track quality 100.0 %
     Test CRC 5EA61EB4
     Copy CRC 5EA61EB4
     Accurately ripped (confidence 1)  [07CE5975]  (AR v2)
     Copy OK
Track 10
     Filename E:\Telechargement DD\Lynda Lemay-Feutres et Pastels-CD-FLAC-2013-StarKy22\10 - N'importe qui.wav
     Peak level 97.6 %
     Extraction speed 4.6 X
     Track quality 100.0 %
     Test CRC 43EA2FD3
     Copy CRC 43EA2FD3
     Accurately ripped (confidence 1)  [C420AFC4]  (AR v2)
     Copy OK
Track 11
     Filename E:\Telechargement DD\Lynda Lemay-Feutres et Pastels-CD-FLAC-2013-StarKy22\11 - Soupe chaude.wav
     Peak level 97.6 %
     Extraction speed 3.9 X
     Track quality 99.9 %
     Test CRC A2C27004
     Copy CRC A2C27004
     Accurately ripped (confidence 1)  [2B18585F]  (AR v2)
     Copy OK
Track 12
     Filename E:\Telechargement DD\Lynda Lemay-Feutres et Pastels-CD-FLAC-2013-StarKy22\12 - Le petit chalet de bois.wav
     Peak level 97.6 %
     Extraction speed 4.8 X
     Track quality 100.0 %
     Test CRC D4C527AB
     Copy CRC D4C527AB
     Accurately ripped (confidence 1)  [2E7C5129]  (AR v2)
     Copy OK
Track 13
     Filename E:\Telechargement DD\Lynda Lemay-Feutres et Pastels-CD-FLAC-2013-StarKy22\13 - Le grand tableau vert.wav
     Peak level 97.6 %
     Extraction speed 4.6 X
     Track quality 99.9 %
     Test CRC C9AC79D8
     Copy CRC C9AC79D8
     Accurately ripped (confidence 1)  [9371E2C1]  (AR v2)
     Copy OK
Track 14
     Filename E:\Telechargement DD\Lynda Lemay-Feutres et Pastels-CD-FLAC-2013-StarKy22\14 - Attendre son pays.wav
     Peak level 97.6 %
     Extraction speed 5.0 X
     Track quality 100.0 %
     Test CRC 72DAE95B
     Copy CRC 72DAE95B
     Accurately ripped (confidence 1)  [EC6A3B84]  (AR v2)
     Copy OK
Track 15
     Filename E:\Telechargement DD\Lynda Lemay-Feutres et Pastels-CD-FLAC-2013-StarKy22\15 - Au ciel ou la vie.wav
     Peak level 97.6 %
     Extraction speed 4.2 X
     Track quality 99.9 %
     Test CRC 8A38AA29
     Copy CRC 8A38AA29
     Accurately ripped (confidence 1)  [D3F9F87C]  (AR v2)
     Copy OK
Track 16
     Filename E:\Telechargement DD\Lynda Lemay-Feutres et Pastels-CD-FLAC-2013-StarKy22\16 - Emmanuelle et le fils du roi ciel.wav
     Peak level 97.6 %
     Extraction speed 5.5 X
     Track quality 100.0 %
     Test CRC F6CAFA46
     Copy CRC F6CAFA46
     Accurately ripped (confidence 1)  [634846CE]  (AR v2)
     Copy OK
Track 17
     Filename E:\Telechargement DD\Lynda Lemay-Feutres et Pastels-CD-FLAC-2013-StarKy22\17 - La femme chauve-souris.wav
     Peak level 97.6 %
     Extraction speed 5.4 X
     Track quality 100.0 %
     Test CRC C5D77A9D
     Copy CRC C5D77A9D
     Accurately ripped (confidence 1)  [52611B5E]  (AR v2)
     Copy OK
All tracks accurately ripped
No errors occurred
End of status report
==== Log checksum 17B09B1D3AAA3FA39D8423B0018CBF222BD56469297D55782E06F520E0878B40 ====
Код:
REM GENRE Variete
REM DATE 2013
REM DISCID D70E8711
REM COMMENT "ExactAudioCopy v1.0b3"
PERFORMER "Linda Lemay"
TITLE "Feutres et Pastels"
FILE "01 - Je tourne, je tourne.wav" WAVE
  TRACK 01 AUDIO
    TITLE "Je tourne, je tourne"
    PERFORMER "Linda Lemay"
    ISRC CAW111300406
    INDEX 01 00:00:00
FILE "02 - Comment ca va.wav" WAVE
  TRACK 02 AUDIO
    TITLE "Comment ca va"
    PERFORMER "Linda Lemay"
    ISRC CAW111300407
    INDEX 01 00:00:00
FILE "03 - Cagoule.wav" WAVE
  TRACK 03 AUDIO
    TITLE "Cagoule"
    PERFORMER "Linda Lemay"
    ISRC CAW111300408
    INDEX 01 00:00:00
FILE "04 - Quand j'etais p'tit gars.wav" WAVE
  TRACK 04 AUDIO
    TITLE "Quand j'etais p'tit gars"
    PERFORMER "Linda Lemay"
    ISRC CAW111300409
    INDEX 01 00:00:00
FILE "05 - Doux doux le mechant loup.wav" WAVE
  TRACK 05 AUDIO
    TITLE "Doux doux le mechant loup"
    PERFORMER "Linda Lemay"
    ISRC CAW111300410
    INDEX 01 00:00:00
FILE "06 - Reste avec elle.wav" WAVE
  TRACK 06 AUDIO
    TITLE "Reste avec elle"
    PERFORMER "Linda Lemay"
    ISRC CAW111300411
    INDEX 01 00:00:00
FILE "07 - Les petits et les grands.wav" WAVE
  TRACK 07 AUDIO
    TITLE "Les petits et les grands"
    PERFORMER "Linda Lemay"
    ISRC CAW111300412
    INDEX 01 00:00:00
FILE "08 - L'architecte.wav" WAVE
  TRACK 08 AUDIO
    TITLE "L'architecte"
    PERFORMER "Linda Lemay"
    ISRC CAW111300413
    INDEX 01 00:00:00
FILE "09 - Cafe.wav" WAVE
  TRACK 09 AUDIO
    TITLE "Cafe"
    PERFORMER "Linda Lemay"
    ISRC CAW111300413
    INDEX 01 00:00:00
FILE "10 - N'importe qui.wav" WAVE
  TRACK 10 AUDIO
    TITLE "N'importe qui"
    PERFORMER "Linda Lemay"
    ISRC CAW111300414
    INDEX 01 00:00:00
FILE "11 - Soupe chaude.wav" WAVE
  TRACK 11 AUDIO
    TITLE "Soupe chaude"
    PERFORMER "Linda Lemay"
    ISRC CAW111300416
    INDEX 01 00:00:00
FILE "12 - Le petit chalet de bois.wav" WAVE
  TRACK 12 AUDIO
    TITLE "Le petit chalet de bois"
    PERFORMER "Linda Lemay"
    ISRC CAW111300417
    INDEX 01 00:00:00
FILE "13 - Le grand tableau vert.wav" WAVE
  TRACK 13 AUDIO
    TITLE "Le grand tableau vert"
    PERFORMER "Linda Lemay"
    ISRC CAW111300417
    INDEX 01 00:00:00
FILE "14 - Attendre son pays.wav" WAVE
  TRACK 14 AUDIO
    TITLE "Attendre son pays"
    PERFORMER "Linda Lemay"
    ISRC CAW111300419
    INDEX 01 00:00:00
FILE "15 - Au ciel ou la vie.wav" WAVE
  TRACK 15 AUDIO
    TITLE "Au ciel ou la vie"
    PERFORMER "Linda Lemay"
    ISRC CAW111300420
    INDEX 01 00:00:00
FILE "16 - Emmanuelle et le fils du roi ciel.wav" WAVE
  TRACK 16 AUDIO
    TITLE "Emmanuelle et le fils du roi ciel"
    PERFORMER "Linda Lemay"
    ISRC CAW111300421
    INDEX 01 00:00:00
FILE "17 - La femme chauve-souris.wav" WAVE
  TRACK 17 AUDIO
    TITLE "La femme chauve-souris"
    PERFORMER "Linda Lemay"
    ISRC CAW111300422
    INDEX 01 00:00:00
Код:
AUDIOCHECKER v2.0 beta (build 457) - by Dester - opdester@freemail.hu
~~~~~~~~~~~~~~~~~~~~~~~~~~~~~~~~~~
-=== DO NOT EDIT THIS FILE! ===-
Path: ...\Lynda Lemay-Feutres et Pastels 2013
01 -=- 01 - Je tourne, je tourne.flac -=- CDDA (100%)
02 -=- 02 - Comment ca va.flac -=- CDDA (99%)
03 -=- 03 - Cagoule.flac -=- CDDA (100%)
04 -=- 04 - Quand j'etais p'tit gars.flac -=- CDDA (100%)
05 -=- 05 - Doux doux le mechant loup.flac -=- CDDA (100%)
06 -=- 06 - Reste avec elle.flac -=- CDDA (100%)
07 -=- 07 - Les petits et les grands.flac -=- CDDA (100%)
08 -=- 08 - L'architecte.flac -=- CDDA (100%)
09 -=- 09 - Cafe.flac -=- CDDA (100%)
10 -=- 10 - N'importe qui.flac -=- CDDA (100%)
11 -=- 11 - Soupe chaude.flac -=- CDDA (100%)
12 -=- 12 - Le petit chalet de bois.flac -=- CDDA (100%)
13 -=- 13 - Le grand tableau vert.flac -=- CDDA (100%)
14 -=- 14 - Attendre son pays.flac -=- CDDA (100%)
15 -=- 15 - Au ciel ou la vie.flac -=- CDDA (100%)
16 -=- 16 - Emmanuelle et le fils du roi ciel.flac -=- CDDA (100%)
17 -=- 17 - La femme chauve-souris.flac -=- CDDA (100%)
Summary 99,94% CDDA
92713716
Multiplatinum, multiple Félix award winner, and 8-time JUNO nominee Lynda Lemay has dished out her latest studio album, Feutres
et pastels after her Best Of work in 2011. The singer, songwriter, and guitarist has been releasing material since 1990, her best-
selling of which was 1994′s Y, a double-platinum sensation. Four other albums struck gold. To support her new release, she will be
touring Québec later this year and France in 2014. Always able to weave out artistically beautiful music, on her new work, Lynda
talks colours. She says the autobiographical album opener is daubed in orange which represents radiant and fiery courage,
something required of her when she first shot to fame.
Other songs encapsulate the green of hope and serenity, qualities required in order to balance life’s responsibilities. Violet contrasts
romantic nostalgia and melancholy. On the one hand we fondly reminisce on the happy times of our childhood but also wince at
the sad psychological effects of being bullied. Blue encompasses sensitivity on the part of the sea (child) seeking recognition from
the sky (parent) and how, when left unfulfilled can change the course of one’s lifetime. The songs are rounded out with rose
(positive values) and yellow (the joy of living and madness). Few Francophone artists from the land we call Canada have been able
to dazzle the good people of France. On this disc, Lynda Lemay reminds us why she has become one of those more privileged. She
is a true artist, a pure talent, and a musical genius. Feutres et pastels is available in both standard and deluxe versions.
Paroles et musique : Lynda Lemay
Réalisation : Claude Lemay
Prise de son et mixage : Mathieu Delong
Mastering : Marc Thériault au Studio Le Lab Mastering, Montréal
Piano : Louis Bernier – Catherine Maurais
Guitare : Yves Savard
Basse : Yves Savard – Marc Langis
Guitare électrique : Mathieur Dulong – Sébastien Dufour – André Coutu
Guitare acoustique : Lynda Lemay – Sébastien Dufour
Accordéons : Catherine Maurais
Batterie : Dominique Messier
Alto : Daniel Jean – Ligia Paquin, Natalie Racine, Elvira Misbakhova, Véronique Potvin
Violons : Philippe Dunnigan, Josée Aidans, Jean-Sébastien Roy, Monique Poitras, Marie Lacasse, Marcelle Malette, Helga Fathe, Frédéric Lefebvre, Sophie Dugas, Renaud Lapierre,
Violoncelles : Christine Giguère – Thérèse Ryan – Carla Antoun
Wurlitzer : Catherine Maurais
Trompette : David Carbonneau
Trombone : Mathieu Van Viet
Tuba : Jean-Sébastien Vachon
Saxophone et Cuivres : Dany Roy
Harmonica : Guy Belanger
Percussions : Paul Picard – Mathieu Delong – Catherine Maurais
Clarinette : André Moisan
Choeurs : Marie-Claude Petit – Catherine Maurais – Lynda Lemay
Правила, инструкции, FAQ!!!
Торрент  Добавлен [01 янв 2020, 23:05] Скачать торрент Магнет ссылка
Скачать торрент
[ Размер 17.4 КБ / Просмотров 2 ]

Статус
Проверен 
 
Размер  397.87 МБ
Приватный: Нет (DHT включён)
.torrent скачан  0
 


     Отправить личное сообщение
   
Страница 1 из 1
Показать сообщения за:  Поле сортировки  
Начать новую тему Ответить на тему


Сейчас этот форум просматривают: нет зарегистрированных пользователей и гости: 0


Вы не можете начинать темы
Вы не можете отвечать на сообщения
Вы не можете редактировать свои сообщения
Вы не можете удалять свои сообщения
Вы не можете добавлять вложения

Перейти:  
cron