Начать новую тему Ответить на тему
Статистика раздачи
Размер: 443.96 МБ | Добавлен: 01 янв 2020, 22:56 | Скачали: 0
Сидеров: 0  [0 байт/сек]    Личеров: 0  [0 байт/сек]
Пред. тема | След. тема 

Автор
Сообщение

СообщениеДобавлено: 01 янв 2020, 22:56 

Ответить с цитатой 

Lynda Lemay - Blessée
Жанр: Chanson
Носитель: CD
Страна-производитель диска: Canada
Год издания: 2010
Издатель (лейбл): Warner Music
Номер по каталогу: 25646 79460
Страна: Canada
Аудиокодек: FLAC (*.flac)
Тип рипа: tracks+.cue
Битрейт аудио: lossless
Продолжительность: 01:12:44
Источник (релизер): StarKy
Наличие сканов в содержимом раздачи: да
Треклист:
1. Blessée 3:18
2. Debout sur les pissenlits 3:51
3. J'ai rencontré Marie 3:15
4. Introduction - Les Mûres 2:13
5. Les Mûres (Live 2010) 3:13
6. Jumelle 5:41
7. Gros colons - Gros blaireaux (Live 2010) 3:26
8. Ça valait des millions 5:26
9. Je t'aime encore 4:03
10. Un golfeur (Live 2010) 2:54
11. Mes plus belles vacances 4:24
12. Ancêtre 3:43
13. Charlot 4:52
14. Poisson 3:54
15. Une mère (Live 2010) 4:38
16. Farce d'oreille 2:31
17. Ma chaise en rotin 3:33
18. Un verre de n'importe quoi (Live 2010) 2:56
19. Entre deux paradis 4:43
Альбом Blessée был выпущен в сентябре 2010. Он собрал девятнадцать хитов (тринадцать из которых новыми), записанных в прямом эфире во время текущее турне Lynda Lemay. В более спокойной, акустической музыкальной обстановки она спела несколько трогательных ("Jumelles") и грустних ("Blessée") композиций. Линда не забыла свое чувство юмора, чтобы добавить положителный штрих к своих концертов. Рекомендую!
Lynda Lemay - Un Golfeur (Live)
Код:
Exact Audio Copy V1.0 beta 3 from 29. August 2011
EAC extraction logfile from 3. December 2013, 17:04
Lynda Lemay / Blessée
Used drive  : SlimtypeDVD A  DS8A4SH   Adapter: 0  ID: 1
Read mode               : Secure
Utilize accurate stream : Yes
Defeat audio cache      : Yes
Make use of C2 pointers : No
Read offset correction                      : 6
Overread into Lead-In and Lead-Out          : No
Fill up missing offset samples with silence : Yes
Delete leading and trailing silent blocks   : No
Null samples used in CRC calculations       : Yes
Used interface                              : Native Win32 interface for Win NT & 2000
Gap handling                                : Appended to previous track
Used output format              : User Defined Encoder
Selected bitrate                : 1024 kBit/s
Quality                         : High
Add ID3 tag                     : No
Command line compressor         : C:\Program Files (x86)\Exact Audio Copy\FLAC\FLAC.EXE
Additional command line options : -8 -V -T "ARTIST=%artist%" -T "TITLE=%title%" -T "ALBUM=%albumtitle%" -T "DATE=%year%" -T "TRACKNUMBER=%tracknr%" -T "GENRE=%genre%" -T "PERFORMER=%albuminterpret%" -T "COMPOSER=%composer%" %haslyrics%--tag-from-file=LYRICS="%lyricsfile%"%haslyrics% -T "ALBUMARTIST=%albumartist%" -T "DISCNUMBER=%cdnumber%" -T "TOTALDISCS=%totalcds%" -T "TOTALTRACKS=%numtracks%" -T "COMMENT=%comment%" %source% -o %dest%
TOC of the extracted CD
     Track |   Start  |  Length  | Start sector | End sector
    ---------------------------------------------------------
        1  |  0:00.00 |  3:18.05 |         0    |    14854
        2  |  3:18.05 |  3:51.39 |     14855    |    32218
        3  |  7:09.44 |  3:15.44 |     32219    |    46887
        4  | 10:25.13 |  2:13.17 |     46888    |    56879
        5  | 12:38.30 |  3:13.46 |     56880    |    71400
        6  | 15:52.01 |  5:41.59 |     71401    |    97034
        7  | 21:33.60 |  3:26.14 |     97035    |   112498
        8  | 24:59.74 |  5:26.60 |    112499    |   137008
        9  | 30:26.59 |  4:03.19 |    137009    |   155252
       10  | 34:30.03 |  2:54.29 |    155253    |   168331
       11  | 37:24.32 |  4:24.35 |    168332    |   188166
       12  | 41:48.67 |  3:43.15 |    188167    |   204906
       13  | 45:32.07 |  4:52.23 |    204907    |   226829
       14  | 50:24.30 |  3:54.47 |    226830    |   244426
       15  | 54:19.02 |  4:38.71 |    244427    |   265347
       16  | 58:57.73 |  2:31.43 |    265348    |   276715
       17  | 61:29.41 |  3:33.70 |    276716    |   292760
       18  | 65:03.36 |  2:56.63 |    292761    |   306023
       19  | 68:00.24 |  4:44.64 |    306024    |   327387
       20  | 75:17.13 |  3:46.57 |    338788    |   355794
Track  1
     Filename E:\Telechargement DD\Lynda Lemay-Blessée-CD-FLAC-2010-StarKy22\01 - Blessée.wav
     Pre-gap length  0:00:02.00
     Peak level 97.6 %
     Extraction speed 1.1 X
     Track quality 100.0 %
     Test CRC D17296EF
     Copy CRC D17296EF
     Accurately ripped (confidence 3)  [76E0C113]  (AR v2)
     Copy OK
Track  2
     Filename E:\Telechargement DD\Lynda Lemay-Blessée-CD-FLAC-2010-StarKy22\02 - Debout sur les pissenlits.wav
     Peak level 97.6 %
     Extraction speed 1.3 X
     Track quality 100.0 %
     Test CRC 4D3D3EFE
     Copy CRC 4D3D3EFE
     Accurately ripped (confidence 3)  [7302F4C7]  (AR v2)
     Copy OK
Track  3
     Filename E:\Telechargement DD\Lynda Lemay-Blessée-CD-FLAC-2010-StarKy22\03 - J'ai rencontré Marie.wav
     Pre-gap length  0:00:00.01
     Peak level 97.6 %
     Extraction speed 1.3 X
     Track quality 100.0 %
     Test CRC 15195457
     Copy CRC 15195457
     Accurately ripped (confidence 3)  [7C791B63]  (AR v2)
     Copy OK
Track  4
     Filename E:\Telechargement DD\Lynda Lemay-Blessée-CD-FLAC-2010-StarKy22\04 - Introduction - Les mûres.wav
     Pre-gap length  0:00:00.01
     Peak level 97.6 %
     Extraction speed 1.3 X
     Track quality 100.0 %
     Test CRC 793C6FD9
     Copy CRC 793C6FD9
     Accurately ripped (confidence 3)  [489F805F]  (AR v2)
     Copy OK
Track  5
     Filename E:\Telechargement DD\Lynda Lemay-Blessée-CD-FLAC-2010-StarKy22\05 - Les mûres.wav
     Pre-gap length  0:00:00.01
     Peak level 97.6 %
     Extraction speed 1.5 X
     Track quality 100.0 %
     Test CRC AB721524
     Copy CRC AB721524
     Accurately ripped (confidence 3)  [7132EDCD]  (AR v2)
     Copy OK
Track  6
     Filename E:\Telechargement DD\Lynda Lemay-Blessée-CD-FLAC-2010-StarKy22\06 - Jumelle.wav
     Pre-gap length  0:00:00.01
     Peak level 97.6 %
     Extraction speed 1.7 X
     Track quality 100.0 %
     Test CRC 430044E3
     Copy CRC 430044E3
     Accurately ripped (confidence 3)  [7E0CFFA4]  (AR v2)
     Copy OK
Track  7
     Filename E:\Telechargement DD\Lynda Lemay-Blessée-CD-FLAC-2010-StarKy22\07 - Gros colons - Gros blaireaux.wav
     Peak level 97.6 %
     Extraction speed 1.5 X
     Track quality 99.9 %
     Test CRC 13C2F9AF
     Copy CRC 13C2F9AF
     Accurately ripped (confidence 3)  [A6C8C066]  (AR v2)
     Copy OK
Track  8
     Filename E:\Telechargement DD\Lynda Lemay-Blessée-CD-FLAC-2010-StarKy22\08 - Ca valait des millions.wav
     Pre-gap length  0:00:00.01
     Peak level 97.6 %
     Extraction speed 1.9 X
     Track quality 100.0 %
     Test CRC 5CE92C57
     Copy CRC 5CE92C57
     Accurately ripped (confidence 3)  [9AC7A5C1]  (AR v2)
     Copy OK
Track  9
     Filename E:\Telechargement DD\Lynda Lemay-Blessée-CD-FLAC-2010-StarKy22\09 - Je t'aime encore.wav
     Pre-gap length  0:00:00.01
     Peak level 97.6 %
     Extraction speed 1.9 X
     Track quality 100.0 %
     Test CRC 5BEB8D55
     Copy CRC 5BEB8D55
     Accurately ripped (confidence 3)  [0ED7D3BE]  (AR v2)
     Copy OK
Track 10
     Filename E:\Telechargement DD\Lynda Lemay-Blessée-CD-FLAC-2010-StarKy22\10 - Un golfeur.wav
     Pre-gap length  0:00:00.01
     Peak level 97.6 %
     Extraction speed 1.9 X
     Track quality 100.0 %
     Test CRC 113CAFF8
     Copy CRC 113CAFF8
     Accurately ripped (confidence 3)  [3E37B387]  (AR v2)
     Copy OK
Track 11
     Filename E:\Telechargement DD\Lynda Lemay-Blessée-CD-FLAC-2010-StarKy22\11 - Mes plus belles vacances.wav
     Pre-gap length  0:00:00.01
     Peak level 97.6 %
     Extraction speed 2.1 X
     Track quality 100.0 %
     Test CRC 60B09A62
     Copy CRC 60B09A62
     Accurately ripped (confidence 3)  [69B153D4]  (AR v2)
     Copy OK
Track 12
     Filename E:\Telechargement DD\Lynda Lemay-Blessée-CD-FLAC-2010-StarKy22\12 - Ancêtre.wav
     Pre-gap length  0:00:00.01
     Peak level 97.6 %
     Extraction speed 2.1 X
     Track quality 100.0 %
     Test CRC B6C8D62C
     Copy CRC B6C8D62C
     Accurately ripped (confidence 3)  [8B6A41D7]  (AR v2)
     Copy OK
Track 13
     Filename E:\Telechargement DD\Lynda Lemay-Blessée-CD-FLAC-2010-StarKy22\13 - Charlot.wav
     Pre-gap length  0:00:00.01
     Peak level 97.6 %
     Extraction speed 2.2 X
     Track quality 100.0 %
     Test CRC C2294859
     Copy CRC C2294859
     Accurately ripped (confidence 3)  [77740958]  (AR v2)
     Copy OK
Track 14
     Filename E:\Telechargement DD\Lynda Lemay-Blessée-CD-FLAC-2010-StarKy22\14 - Poisson.wav
     Pre-gap length  0:00:00.01
     Peak level 97.6 %
     Extraction speed 2.2 X
     Track quality 100.0 %
     Test CRC 37EEA947
     Copy CRC 37EEA947
     Accurately ripped (confidence 3)  [632C0D2E]  (AR v2)
     Copy OK
Track 15
     Filename E:\Telechargement DD\Lynda Lemay-Blessée-CD-FLAC-2010-StarKy22\15 - Une mère.wav
     Pre-gap length  0:00:00.01
     Peak level 97.6 %
     Extraction speed 2.4 X
     Track quality 100.0 %
     Test CRC 2D53AC84
     Copy CRC 2D53AC84
     Accurately ripped (confidence 3)  [ACA19AB6]  (AR v2)
     Copy OK
Track 16
     Filename E:\Telechargement DD\Lynda Lemay-Blessée-CD-FLAC-2010-StarKy22\16 - Farce d'oreille.wav
     Pre-gap length  0:00:00.01
     Peak level 97.6 %
     Extraction speed 2.2 X
     Track quality 100.0 %
     Test CRC 329B6DE1
     Copy CRC 329B6DE1
     Accurately ripped (confidence 3)  [92BEB0FE]  (AR v2)
     Copy OK
Track 17
     Filename E:\Telechargement DD\Lynda Lemay-Blessée-CD-FLAC-2010-StarKy22\17 - Ma chaise en rotin.wav
     Pre-gap length  0:00:00.01
     Peak level 97.6 %
     Extraction speed 2.4 X
     Track quality 100.0 %
     Test CRC 3D22CC9A
     Copy CRC 3D22CC9A
     Accurately ripped (confidence 3)  [EB61775A]  (AR v2)
     Copy OK
Track 18
     Filename E:\Telechargement DD\Lynda Lemay-Blessée-CD-FLAC-2010-StarKy22\18 - Un verre de n'importe quoi.wav
     Pre-gap length  0:00:00.01
     Peak level 97.6 %
     Extraction speed 2.3 X
     Track quality 100.0 %
     Test CRC E8307E6E
     Copy CRC E8307E6E
     Accurately ripped (confidence 3)  [30D2B68F]  (AR v2)
     Copy OK
Track 19
     Filename E:\Telechargement DD\Lynda Lemay-Blessée-CD-FLAC-2010-StarKy22\19 - Entre deux paradis.wav
     Pre-gap length  0:00:00.01
     Peak level 97.6 %
     Extraction speed 2.3 X
     Track quality 99.9 %
     Test CRC C98E8E75
     Copy CRC C98E8E75
     Accurately ripped (confidence 3)  [8EA8E153]  (AR v2)
     Copy OK
All tracks accurately ripped
No errors occurred
End of status report
==== Log checksum FBFE452905FB8E93A41C568B063C85F53E92B86964F774C7C5327A7F0B3544E4 ====
Код:
REM GENRE Chanson
REM DATE 2010
REM DISCID 07128714
REM COMMENT "ExactAudioCopy v1.0b3"
CATALOG 0825646794607
PERFORMER "Lynda Lemay"
TITLE "Blessee"
FILE "01 - Blessee.wav" WAVE
  TRACK 01 AUDIO
    TITLE "Blessee"
    PERFORMER "Lynda Lemay"
    ISRC CAW111000252
    INDEX 01 00:00:00
FILE "02 - Debout sur les pissenlits.wav" WAVE
  TRACK 02 AUDIO
    TITLE "Debout sur les pissenlits"
    PERFORMER "Lynda Lemay"
    ISRC CAW111000253
    INDEX 01 00:00:00
  TRACK 03 AUDIO
    TITLE "J'ai rencontre Marie"
    PERFORMER "Lynda Lemay"
    ISRC CAW111000282
    INDEX 00 03:51:38
FILE "03 - J'ai rencontre Marie.wav" WAVE
    INDEX 01 00:00:00
  TRACK 04 AUDIO
    TITLE "Introduction - Les mыres"
    PERFORMER "Lynda Lemay"
    ISRC CAW111000299
    INDEX 00 03:15:43
FILE "04 - Introduction - Les mures.wav" WAVE
    INDEX 01 00:00:00
  TRACK 05 AUDIO
    TITLE "Les mures"
    PERFORMER "Lynda Lemay"
    ISRC CAW111000255
    INDEX 00 02:13:16
FILE "05 - Les mыres.wav" WAVE
    INDEX 01 00:00:00
  TRACK 06 AUDIO
    TITLE "Jumelle"
    PERFORMER "Lynda Lemay"
    ISRC CAW111000256
    INDEX 00 03:13:45
FILE "06 - Jumelle.wav" WAVE
    INDEX 01 00:00:00
FILE "07 - Gros colons - Gros blaireaux.wav" WAVE
  TRACK 07 AUDIO
    TITLE "Gros colons - Gros blaireaux"
    PERFORMER "Lynda Lemay"
    ISRC CAW111000257
    INDEX 01 00:00:00
  TRACK 08 AUDIO
    TITLE "Ca valait des millions"
    PERFORMER "Lynda Lemay"
    ISRC CAW111000283
    INDEX 00 03:26:13
FILE "08 - Ca valait des millions.wav" WAVE
    INDEX 01 00:00:00
  TRACK 09 AUDIO
    TITLE "Je t'aime encore"
    PERFORMER "Lynda Lemay"
    ISRC CAW111000283
    INDEX 00 05:26:59
FILE "09 - Je t'aime encore.wav" WAVE
    INDEX 01 00:00:00
  TRACK 10 AUDIO
    TITLE "Un golfeur"
    PERFORMER "Lynda Lemay"
    ISRC CAW111000260
    INDEX 00 04:03:18
FILE "10 - Un golfeur.wav" WAVE
    INDEX 01 00:00:00
  TRACK 11 AUDIO
    TITLE "Mes plus belles vacances"
    PERFORMER "Lynda Lemay"
    ISRC CAW111000258
    INDEX 00 02:54:28
FILE "11 - Mes plus belles vacances.wav" WAVE
    INDEX 01 00:00:00
  TRACK 12 AUDIO
    TITLE "Ancetre"
    PERFORMER "Lynda Lemay"
    ISRC CAW111000259
    INDEX 00 04:24:34
FILE "12 - Ancetre.wav" WAVE
    INDEX 01 00:00:00
  TRACK 13 AUDIO
    TITLE "Charlot"
    PERFORMER "Lynda Lemay"
    ISRC CAW111000266
    INDEX 00 03:43:14
FILE "13 - Charlot.wav" WAVE
    INDEX 01 00:00:00
  TRACK 14 AUDIO
    TITLE "Poisson"
    PERFORMER "Lynda Lemay"
    ISRC CAW111000262
    INDEX 00 04:52:22
FILE "14 - Poisson.wav" WAVE
    INDEX 01 00:00:00
  TRACK 15 AUDIO
    TITLE "Une mere"
    PERFORMER "Lynda Lemay"
    ISRC CAW111000262
    INDEX 00 03:54:46
FILE "15 - Une mere.wav" WAVE
    INDEX 01 00:00:00
  TRACK 16 AUDIO
    TITLE "Farce d'oreille"
    PERFORMER "Lynda Lemay"
    ISRC CAW111000264
    INDEX 00 04:38:70
FILE "16 - Farce d'oreille.wav" WAVE
    INDEX 01 00:00:00
  TRACK 17 AUDIO
    TITLE "Ma chaise en rotin"
    PERFORMER "Lynda Lemay"
    ISRC CAW111000264
    INDEX 00 02:31:42
FILE "17 - Ma chaise en rotin.wav" WAVE
    INDEX 01 00:00:00
  TRACK 18 AUDIO
    TITLE "Un verre de n'importe quoi"
    PERFORMER "Lynda Lemay"
    ISRC CAW111000267
    INDEX 00 03:33:69
FILE "18 - Un verre de n'importe quoi.wav" WAVE
    INDEX 01 00:00:00
  TRACK 19 AUDIO
    TITLE "Entre deux paradis"
    PERFORMER "Lynda Lemay"
    ISRC CAW111000268
    INDEX 00 02:56:62
FILE "19 - Entre deux paradis.wav" WAVE
    INDEX 01 00:00:00
  TRACK 20 MODEx/2xxx
    TITLE "Data Track"
    PERFORMER "Lynda Lemay"
    INDEX 00 04:44:64
Код:
AUDIOCHECKER v2.0 beta (build 457) - by Dester - opdester@freemail.hu
~~~~~~~~~~~~~~~~~~~~~~~~~~~~~~~~~~
-=== DO NOT EDIT THIS FILE! ===-
Path: ...\Lynda Lemay - Blessеe 2010
01 -=- 01 - Blessee.flac -=- CDDA (100%)
02 -=- 02 - Debout sur les pissenlits.flac -=- CDDA (100%)
03 -=- 03 - J'ai rencontre Marie.flac -=- CDDA (100%)
04 -=- 04 - Introduction - Les mures.flac -=- CDDA (100%)
05 -=- 05 - Les mures.flac -=- CDDA (99%)
06 -=- 06 - Jumelle.flac -=- CDDA (100%)
07 -=- 07 - Gros colons - Gros blaireaux.flac -=- CDDA (100%)
08 -=- 08 - Ca valait des millions.flac -=- CDDA (100%)
09 -=- 09 - Je t'aime encore.flac -=- CDDA (100%)
10 -=- 10 - Un golfeur.flac -=- CDDA (99%)
11 -=- 11 - Mes plus belles vacances.flac -=- CDDA (100%)
12 -=- 12 - Ancetre.flac -=- CDDA (99%)
13 -=- 13 - Charlot.flac -=- CDDA (99%)
14 -=- 14 - Poisson.flac -=- CDDA (100%)
15 -=- 15 - Une mere.flac -=- CDDA (100%)
16 -=- 16 - Farce d'oreille.flac -=- CDDA (100%)
17 -=- 17 - Ma chaise en rotin.flac -=- CDDA (100%)
18 -=- 18 - Un verre de n'importe quoi.flac -=- CDDA (100%)
19 -=- 19 - Entre deux paradis.flac -=- CDDA (100%)
Summary 99,79% CDDA
66065204
Lynda Lemay - Feutres et pastels - 2013, FLAC (tracks+.cue), lossless
Правила, инструкции, FAQ!!!
Торрент  Добавлен [01 янв 2020, 22:56] Скачать торрент Магнет ссылка
Скачать торрент
[ Размер 19.19 КБ / Просмотров 4 ]

Статус
Проверен 
 
Размер  443.96 МБ
Приватный: Нет (DHT включён)
.torrent скачан  0
 


     Отправить личное сообщение
   
Страница 1 из 1
Показать сообщения за:  Поле сортировки  
Начать новую тему Ответить на тему


Сейчас этот форум просматривают: нет зарегистрированных пользователей и гости: 0


Вы не можете начинать темы
Вы не можете отвечать на сообщения
Вы не можете редактировать свои сообщения
Вы не можете удалять свои сообщения
Вы не можете добавлять вложения

Перейти:  
cron