Начать новую тему Ответить на тему
Статистика раздачи
Размер: 3.26 ГБ | Добавлен: 01 янв 2020, 22:59 | Скачали: 0
Сидеров: 1  [0 байт/сек]    Личеров: 0  [0 байт/сек]
Пред. тема | След. тема 

Автор
Сообщение

СообщениеДобавлено: 01 янв 2020, 22:59 

Ответить с цитатой 

Les Hurlements d'Leo - Discography (10 CD) (1999 - 2011)
Жанр: ява, панк-рок, ска, шансон, цыганская музыка
Год выпуска диска: 1999 - 2011
Производитель диска: France
Аудио кодек: FLAC
Тип рипа: image+.cue
Битрейт аудио: lossless
Источники:e2k;what.cd;другие зарубежные трекеры
Группа Les Hurlements d'Leo (букв. "Вопли Лео") появилась в барах французского городка Бордо в конце 1995 года с музыкой, представляющей собой гремучую смесь из традиционного французского городского романса (шансона), фолка, ска, ява (французской «разновидность» панк-рока; букв. «рок-кутёж») и элементов балканской цыганщины, тем самым сразу заявив о своей принадлежности скорее к альтернативной сцене, нежели к традиционному французскому шансону. Благодаря своему активному творческому поиску и профессиональному росту, акустический квартет быстро увеличился до своего нынешнего состава: контрабас, саксофон, аккордеон, труба, скрипка, ударные и гитара.
Говорят, что название группы родилось из последних строк песни звезды альтернативной французской рок-сцены 80-х годов Les VRP. Сами "Вопли", не чуждающиеся чёрного юмора, утверждают, что это дань уважения героине Французской Коммуны Андре Лео, расстрелянной во время кровавой недели 1871 года.
Официальные альбомы
#777В начале 1999 года ребята собственными силами записали свою дебютную пластинку "Le Cafe des Jours Heureux" (Кафе счастливых дней),которая разошлась тиражом в 30 000 экземпляров. Эта первая работа - импульсивная и яркая - была отмечена музыкальной критикой за бурную энергетику и мелодичность.
Продолжительность: 35:34
Трэклист:
1. Les Hurlements d'Leo - La der des der (2:43)
2. Les Hurlements d'Leo - Louise (4:33)
3. Les Hurlements d'Leo - Le p'tit monsieur en gris (3:29)
4. Les Hurlements d'Leo - Fabulous and luxury holidays for todos in Barbados (3:55)
5. Les Hurlements d'Leo - La nuit, le jour (2:18)
6. Les Hurlements d'Leo - Au 39 (2:27)
7. Les Hurlements d'Leo - L'accordйoniste (3:02)
8. Les Hurlements d'Leo - Une danseuse (3:55)
9. Les Hurlements d'Leo - La piave (3:43)
10. Les Hurlements d'Leo - La vie du quartier (2:49)
11. Les Hurlements d'Leo - Une corde et du papier (3:00)
Код:
Exact Audio Copy V0.99 prebeta 3 from 28. July 2007
EAC extraction logfile from 8. June 2009, 20:05
Les Hurlements d'Leo / Le Cafй des Jours Heureux
Used drive  : Optiarc DVD RW AD-7203A   Adapter: 1  ID: 1
Read mode               : Secure
Utilize accurate stream : Yes
Defeat audio cache      : Yes
Make use of C2 pointers : No
Read offset correction                      : 48
Overread into Lead-In and Lead-Out          : No
Fill up missing offset samples with silence : Yes
Delete leading and trailing silent blocks   : No
Null samples used in CRC calculations       : Yes
Used interface                              : Native Win32 interface for Win NT & 2000
Used output format              : User Defined Encoder
Selected bitrate                : 768 kBit/s
Quality                         : High
Add ID3 tag                     : No
Command line compressor         : D:\Program Files\Exact Audio Copy\Flac\flac.exe
Additional command line options : -8 -V -T "ARTIST=%a" -T "TITLE=%t" -T "ALBUM=%g" -T "DATE=%y" -T "TRACKNUMBER=%n" -T "GENRE=%m" -T "COMMENT=EAC FLAC -8" %s
TOC of the extracted CD
     Track |   Start  |  Length  | Start sector | End sector
    ---------------------------------------------------------
        1  |  0:00.00 |  2:43.66 |         0    |    12290
        2  |  2:43.66 |  4:33.23 |     12291    |    32788
        3  |  7:17.14 |  3:29.62 |     32789    |    48525
        4  | 10:47.01 |  3:55.65 |     48526    |    66215
        5  | 14:42.66 |  2:18.18 |     66216    |    76583
        6  | 17:01.09 |  2:27.39 |     76584    |    87647
        7  | 19:28.48 |  3:02.41 |     87648    |   101338
        8  | 22:31.14 |  3:55.37 |    101339    |   119000
        9  | 26:26.51 |  3:43.11 |    119001    |   135736
       10  | 30:09.62 |  2:49.43 |    135737    |   148454
       11  | 32:59.30 |  3:00.34 |    148455    |   161988
Range status and errors
Selected range
     Filename D:\Temp\Les Hurlements d'Leo - Le Cafe des Jours Heureux (1999)\Les Hurlements d'Leo - Le Cafй des Jours Heureux.wav
     Peak level 100.0 %
     Range quality 100.0 %
     Test CRC 02744A9E
     Copy CRC 02744A9E
     Copy OK
No errors occurred
AccurateRip summary
Track  1  cannot be verified as accurate (confidence 1)  [93CFF8B8], AccurateRip returned [0C2BD561]
Track  2  cannot be verified as accurate (confidence 1)  [9FD43EE8], AccurateRip returned [08A0F22F]
Track  3  cannot be verified as accurate (confidence 1)  [9DD4139E], AccurateRip returned [D99AE8CF]
Track  4  cannot be verified as accurate (confidence 1)  [5B779CDD], AccurateRip returned [0CEDC505]
Track  5  cannot be verified as accurate (confidence 1)  [CF68C1AA], AccurateRip returned [37325225]
Track  6  cannot be verified as accurate (confidence 1)  [79E94BC1], AccurateRip returned [2DF3A0A4]
Track  7  cannot be verified as accurate (confidence 1)  [5652CB21], AccurateRip returned [791AEEBF]
Track  8  cannot be verified as accurate (confidence 1)  [FC29F22E], AccurateRip returned [B85E2B94]
Track  9  cannot be verified as accurate (confidence 1)  [9FEE6AC9], AccurateRip returned [7DCCBB4E]
Track 10  cannot be verified as accurate (confidence 1)  [D65061DA], AccurateRip returned [689E60EB]
Track 11  cannot be verified as accurate (confidence 1)  [0B6C18F2], AccurateRip returned [8825EF9F]
No tracks could be verified as accurate
You may have a different pressing from the one(s) in the database
End of status report
#777"La Belle Affaire" (Хорошенькое Дело) - второй альбом группы.Новый альбом продолжил традицию, заложенную в первом – тексты песен остались такими же поэтичными и в то же время реалистичными, вдохновлёнными разными мелочами повседневной жизни.Пластинка получилась гораздо лучше спродюсированной, чем предыдущая, однако группе удалось сохранить свежесть и оригинальность своего звучания, не пасть жертвой "современных технологий студийной записи", и даже наоборот - провозгласить победу "человеческого фактора" над современной техникой.
Продолжительность: 38:54
Трэклист:
1. Les Hurlements d'Leo - Ici, d'ailleurs (3:41)
2. Les Hurlements d'Leo - Poиmes (2:30)
3. Les Hurlements d'Leo - Bonimenteur (3:01)
4. Les Hurlements d'Leo - La malle en mai (4:24)
5. Les Hurlements d'Leo - Le 5иme demi-tour (2:49)
6. Les Hurlements d'Leo - A bout d'souffle (3:18)
7. Les Hurlements d'Leo - Le mort (3:31)
8. Les Hurlements d'Leo - Dimanche а s'йtendre (2:41)
9. Les Hurlements d'Leo - La belle affaire (3:29)
10. Les Hurlements d'Leo - Plus tard (2:18)
11. Les Hurlements d'Leo - Sanizettes (3:16)
12. Les Hurlements d'Leo - Wetchtival ! (3:56)
Код:
Exact Audio Copy V0.99 prebeta 3 from 28. July 2007
EAC extraction logfile from 7. June 2009, 23:39
Les Hurlements d'Leo / La Belle Affaire
Used drive  : Optiarc DVD RW AD-7203A   Adapter: 1  ID: 1
Read mode               : Secure
Utilize accurate stream : Yes
Defeat audio cache      : Yes
Make use of C2 pointers : No
Read offset correction                      : 48
Overread into Lead-In and Lead-Out          : No
Fill up missing offset samples with silence : Yes
Delete leading and trailing silent blocks   : No
Null samples used in CRC calculations       : Yes
Used interface                              : Native Win32 interface for Win NT & 2000
Used output format              : User Defined Encoder
Selected bitrate                : 768 kBit/s
Quality                         : High
Add ID3 tag                     : No
Command line compressor         : D:\Program Files\Exact Audio Copy\Flac\flac.exe
Additional command line options : -8 -V -T "ARTIST=%a" -T "TITLE=%t" -T "ALBUM=%g" -T "DATE=%y" -T "TRACKNUMBER=%n" -T "GENRE=%m" -T "COMMENT=EAC FLAC -8" %s
TOC of the extracted CD
     Track |   Start  |  Length  | Start sector | End sector
    ---------------------------------------------------------
        1  |  0:00.00 |  3:41.15 |         0    |    16589
        2  |  3:41.15 |  2:30.50 |     16590    |    27889
        3  |  6:11.65 |  3:01.45 |     27890    |    41509
        4  |  9:13.35 |  4:24.45 |     41510    |    61354
        5  | 13:38.05 |  2:49.25 |     61355    |    74054
        6  | 16:27.30 |  3:18.10 |     74055    |    88914
        7  | 19:45.40 |  3:31.65 |     88915    |   104804
        8  | 23:17.30 |  2:41.32 |    104805    |   116911
        9  | 25:58.62 |  3:29.40 |    116912    |   132626
       10  | 29:28.27 |  2:18.43 |    132627    |   143019
       11  | 31:46.70 |  3:16.47 |    143020    |   157766
       12  | 35:03.42 |  3:56.23 |    157767    |   175489
Range status and errors
Selected range
     Filename D:\Temp\Les Hurlements d'Leo - La Belle Affaire (2000)\Les Hurlements d'Leo - La Belle Affaire.wav
     Peak level 100.0 %
     Range quality 100.0 %
     Test CRC 85C68C4B
     Copy CRC 85C68C4B
     Copy OK
No errors occurred
AccurateRip summary
Track  1  not present in database
Track  2  not present in database
Track  3  not present in database
Track  4  not present in database
Track  5  not present in database
Track  6  not present in database
Track  7  not present in database
Track  8  not present in database
Track  9  not present in database
Track 10  not present in database
Track 11  not present in database
Track 12  not present in database
None of the tracks are present in the AccurateRip database
End of status report
#777В октябре 2003 года вышел третий студийный альбом "Ouest Terne".Песни были такими же разнообразными и энергичными, как и на предыдущем альбоме, сочетая рок и оттенки явы. Тексты стали более аккуратными, однако не потеряв некоторой спонтанности, свойственной HDL.
Продолжительность: 49:25
Трэклист:
1. Les Hurlements d'Leo - Lame Soeur (4:13)
2. Les Hurlements d'Leo - La Chambre (3:10)
3. Les Hurlements d'Leo - Harley Davidson (3:27)
4. Les Hurlements d'Leo - Le Racheteur d'Ardoises (3:48)
5. Les Hurlements d'Leo - La Laisse (3:29)
6. Les Hurlements d'Leo - Kalйidoscope (4:08)
7. Les Hurlements d'Leo - Ouest Terne (2:45)
8. Les Hurlements d'Leo - Simon Simone (2:14)
9. Les Hurlements d'Leo - Ethnique Ta Mиre (3:03)
10. Les Hurlements d'Leo - Le A d'Amйlie (3:12)
11. Les Hurlements d'Leo - La Laisskwing (4:20)
12. Les Hurlements d'Leo - Mon Cul (4:14)
13. Les Hurlements d'Leo - Roi Des Villes, Roi Des Champs (4:16)
14. Les Hurlements d'Leo - La Piave (3:06)
Код:
Exact Audio Copy V0.99 prebeta 3 from 28. July 2007
EAC extraction logfile from 8. June 2009, 23:42
Les Hurlements d'Leo / Ouest Terne
Used drive  : Optiarc DVD RW AD-7203A   Adapter: 1  ID: 1
Read mode               : Secure
Utilize accurate stream : Yes
Defeat audio cache      : Yes
Make use of C2 pointers : No
Read offset correction                      : 48
Overread into Lead-In and Lead-Out          : No
Fill up missing offset samples with silence : Yes
Delete leading and trailing silent blocks   : No
Null samples used in CRC calculations       : Yes
Used interface                              : Native Win32 interface for Win NT & 2000
Used output format              : User Defined Encoder
Selected bitrate                : 768 kBit/s
Quality                         : High
Add ID3 tag                     : No
Command line compressor         : D:\Program Files\Exact Audio Copy\Flac\flac.exe
Additional command line options : -8 -V -T "ARTIST=%a" -T "TITLE=%t" -T "ALBUM=%g" -T "DATE=%y" -T "TRACKNUMBER=%n" -T "GENRE=%m" -T "COMMENT=EAC FLAC -8" %s
TOC of the extracted CD
     Track |   Start  |  Length  | Start sector | End sector
    ---------------------------------------------------------
        1  |  0:00.00 |  4:13.50 |         0    |    19024
        2  |  4:13.50 |  3:10.29 |     19025    |    33303
        3  |  7:24.04 |  3:27.15 |     33304    |    48843
        4  | 10:51.19 |  3:48.00 |     48844    |    65943
        5  | 14:39.19 |  3:29.09 |     65944    |    81627
        6  | 18:08.28 |  4:08.10 |     81628    |   100237
        7  | 22:16.38 |  2:45.42 |    100238    |   112654
        8  | 25:02.05 |  2:14.47 |    112655    |   122751
        9  | 27:16.52 |  3:03.29 |    122752    |   136505
       10  | 30:20.06 |  3:12.26 |    136506    |   150931
       11  | 33:32.32 |  4:20.29 |    150932    |   170460
       12  | 37:52.61 |  4:14.64 |    170461    |   189574
       13  | 42:07.50 |  4:16.49 |    189575    |   208823
       14  | 46:24.24 |  3:06.73 |    208824    |   222846
Range status and errors
Selected range
     Filename D:\Temp\Les Hurlements d'Leo - Ouest Terne (2003)\Les Hurlements d'Leo - Ouest Terne.wav
     Peak level 100.0 %
     Range quality 99.9 %
     Test CRC 4BBD20CF
     Copy CRC 4BBD20CF
     Copy OK
No errors occurred
AccurateRip summary
Track  1  cannot be verified as accurate (confidence 1)  [B83D6B95], AccurateRip returned [7E8F525B]
Track  2  cannot be verified as accurate (confidence 1)  [5D1B52B3], AccurateRip returned [41BE01B9]
Track  3  cannot be verified as accurate (confidence 1)  [05023509], AccurateRip returned [27166B23]
Track  4  cannot be verified as accurate (confidence 1)  [07B000C3], AccurateRip returned [823C719A]
Track  5  cannot be verified as accurate (confidence 1)  [DA16B08F], AccurateRip returned [6CC635AC]
Track  6  cannot be verified as accurate (confidence 1)  [44EA6664], AccurateRip returned [DF10CD7D]
Track  7  cannot be verified as accurate (confidence 1)  [3379146E], AccurateRip returned [A45F111B]
Track  8  cannot be verified as accurate (confidence 1)  [4BB1AFDC], AccurateRip returned [F0A61602]
Track  9  cannot be verified as accurate (confidence 1)  [F3866988], AccurateRip returned [66D2EEB0]
Track 10  cannot be verified as accurate (confidence 1)  [3CF69044], AccurateRip returned [0F5EC324]
Track 11  cannot be verified as accurate (confidence 1)  [6D813046], AccurateRip returned [0FF560CF]
Track 12  cannot be verified as accurate (confidence 1)  [3397DCA0], AccurateRip returned [F9D7EA15]
Track 13  cannot be verified as accurate (confidence 1)  [97677AE6], AccurateRip returned [2C957648]
Track 14  cannot be verified as accurate (confidence 1)  [20092479], AccurateRip returned [F7CA6103]
No tracks could be verified as accurate
You may have a different pressing from the one(s) in the database
End of status report
#777В 2005 году вышел живой альбом с любимыми песнями группы с альбома "Ouest Terne" - "HDL Live".
Продолжительность: 57:44
Трэклист:
1. Les Hurlements d'Leo - lame soeur (4:26)
2. Les Hurlements d'Leo - le mort (3:18)
3. Les Hurlements d'Leo - la der des der (2:45)
4. Les Hurlements d'Leo - la chambre (3:13)
5. Les Hurlements d'Leo - dimanche a s'etendre (3:03)
6. Les Hurlements d'Leo - a bout d'souffle (3:13)
7. Les Hurlements d'Leo - louise (4:25)
8. Les Hurlements d'Leo - le 5eme demi tour (2:54)
9. Les Hurlements d'Leo - simon simone (2:33)
10. Les Hurlements d'Leo - le racheteur d'ardoise (3:18)
11. Les Hurlements d'Leo - poиmes (2:26)
12. Les Hurlements d'Leo - la malle en mai (4:09)
13. Les Hurlements d'Leo - roi des villes roi des champs (5:22)
14. Les Hurlements d'Leo - ouest terne (2:49)
15. Les Hurlements d'Leo - le cafй des jours heureux (2:57)
16. Les Hurlements d'Leo - ethnique ta mиre (2:54)
17. Les Hurlements d'Leo - sanizettes (3:59)
Код:
Exact Audio Copy V0.99 prebeta 3 from 28. July 2007
EAC extraction logfile from 4. July 2009, 15:31
Les Hurlements d'Leo / HDL Live
Used drive  : Optiarc DVD RW AD-7203A   Adapter: 1  ID: 1
Read mode               : Secure
Utilize accurate stream : Yes
Defeat audio cache      : Yes
Make use of C2 pointers : No
Read offset correction                      : 48
Overread into Lead-In and Lead-Out          : No
Fill up missing offset samples with silence : Yes
Delete leading and trailing silent blocks   : No
Null samples used in CRC calculations       : Yes
Used interface                              : Native Win32 interface for Win NT & 2000
Used output format              : User Defined Encoder
Selected bitrate                : 768 kBit/s
Quality                         : High
Add ID3 tag                     : No
Command line compressor         : D:\Program Files\Exact Audio Copy\Flac\flac.exe
Additional command line options : -8 -V -T "ARTIST=%a" -T "TITLE=%t" -T "ALBUM=%g" -T "DATE=%y" -T "TRACKNUMBER=%n" -T "GENRE=%m" -T "COMMENT=EAC FLAC -8" %s
TOC of the extracted CD
     Track |   Start  |  Length  | Start sector | End sector
    ---------------------------------------------------------
        1  |  0:00.00 |  4:26.52 |         0    |    20001
        2  |  4:26.52 |  3:18.62 |     20002    |    34913
        3  |  7:45.39 |  2:45.25 |     34914    |    47313
        4  | 10:30.64 |  3:13.01 |     47314    |    61789
        5  | 13:43.65 |  3:03.05 |     61790    |    75519
        6  | 16:46.70 |  3:13.68 |     75520    |    90062
        7  | 20:00.63 |  4:25.39 |     90063    |   109976
        8  | 24:26.27 |  2:54.29 |    109977    |   123055
        9  | 27:20.56 |  2:33.00 |    123056    |   134530
       10  | 29:53.56 |  3:18.19 |    134531    |   149399
       11  | 33:12.00 |  2:26.65 |    149400    |   160414
       12  | 35:38.65 |  4:09.49 |    160415    |   179138
       13  | 39:48.39 |  5:22.23 |    179139    |   203311
       14  | 45:10.62 |  2:49.00 |    203312    |   215986
       15  | 47:59.62 |  2:57.49 |    215987    |   229310
       16  | 50:57.36 |  2:54.27 |    229311    |   242387
       17  | 53:51.63 |  3:59.07 |    242388    |   260319
Range status and errors
Selected range
     Filename D:\EAC Rips\Les Hurlements d'Leo - HDL Live.wav
     Peak level 99.8 %
     Range quality 100.0 %
     Test CRC 4FB8A695
     Copy CRC 4FB8A695
     Copy OK
No errors occurred
AccurateRip summary
Track  1  not present in database
Track  2  not present in database
Track  3  not present in database
Track  4  not present in database
Track  5  not present in database
Track  6  not present in database
Track  7  not present in database
Track  8  not present in database
Track  9  not present in database
Track 10  not present in database
Track 11  not present in database
Track 12  not present in database
Track 13  not present in database
Track 14  cannot be verified as accurate (confidence 1)  [D9ED8542], AccurateRip returned [14B41221]
Track 15  cannot be verified as accurate (confidence 1)  [2DE76C5A], AccurateRip returned [38E16525]
Track 16  cannot be verified as accurate (confidence 1)  [314AD3CD], AccurateRip returned [ECBB8A28]
Track 17  cannot be verified as accurate (confidence 1)  [8B0D7F4D], AccurateRip returned [B9155ABC]
 4 track(s) could not be verified as accurate
13 track(s) not present in the AccurateRip database
No tracks could be verified as accurate
You may have a different pressing from the one(s) in the database
End of status report
#777В сентябре 2005 HDL записали шестой по счету альбом - "Temps Suspendu", который вышел 13 марта 2006, когда «Вопли» начали новый тур по Германии, Франции, Австралии и России.
Продолжительность: 49:10
Трэклист:
1. Les Hurlements d'Leo - Les pфles (3:46)
2. Les Hurlements d'Leo - I'm a freak (4:30)
3. Les Hurlements d'Leo - Les vipиres aux poings (3:19)
4. Les Hurlements d'Leo - Des tigres & des panthиres (3:40)
5. Les Hurlements d'Leo - Bulle (3:49)
6. Les Hurlements d'Leo - Mon spectacle dйbile (3:33)
7. Les Hurlements d'Leo - L'addiction (3:04)
8. Les Hurlements d'Leo - Viatique (4:16)
9. Les Hurlements d'Leo - Il (3:24)
10. Les Hurlements d'Leo - Icones.com (4:14)
11. Les Hurlements d'Leo - Au temps suspendu (2:51)
12. Les Hurlements d'Leo - Toujours (5:11)
13. Les Hurlements d'Leo - Fleur (3:33)
Код:
Exact Audio Copy V0.99 prebeta 3 from 28. July 2007
EAC extraction logfile from 9. June 2009, 21:20
Les Hurlements d'Leo / Temps Suspendu
Used drive  : Optiarc DVD RW AD-7203A   Adapter: 1  ID: 1
Read mode               : Secure
Utilize accurate stream : Yes
Defeat audio cache      : Yes
Make use of C2 pointers : No
Read offset correction                      : 48
Overread into Lead-In and Lead-Out          : No
Fill up missing offset samples with silence : Yes
Delete leading and trailing silent blocks   : No
Null samples used in CRC calculations       : Yes
Used interface                              : Native Win32 interface for Win NT & 2000
Used output format              : User Defined Encoder
Selected bitrate                : 768 kBit/s
Quality                         : High
Add ID3 tag                     : No
Command line compressor         : D:\Program Files\Exact Audio Copy\Flac\flac.exe
Additional command line options : -8 -V -T "ARTIST=%a" -T "TITLE=%t" -T "ALBUM=%g" -T "DATE=%y" -T "TRACKNUMBER=%n" -T "GENRE=%m" -T "COMMENT=EAC FLAC -8" %s
TOC of the extracted CD
     Track |   Start  |  Length  | Start sector | End sector
    ---------------------------------------------------------
        1  |  0:00.00 |  3:46.46 |         0    |    16995
        2  |  3:46.46 |  4:30.32 |     16996    |    37277
        3  |  8:17.03 |  3:19.37 |     37278    |    52239
        4  | 11:36.40 |  3:40.21 |     52240    |    68760
        5  | 15:16.61 |  3:49.22 |     68761    |    85957
        6  | 19:06.08 |  3:33.08 |     85958    |   101940
        7  | 22:39.16 |  3:04.54 |    101941    |   115794
        8  | 25:43.70 |  4:16.24 |    115795    |   135018
        9  | 30:00.19 |  3:24.69 |    135019    |   150387
       10  | 33:25.13 |  4:14.30 |    150388    |   169467
       11  | 37:39.43 |  2:51.48 |    169468    |   182340
       12  | 40:31.16 |  5:11.27 |    182341    |   205692
       13  | 45:42.43 |  3:33.46 |    205693    |   221713
Range status and errors
Selected range
     Filename D:\Temp\Les Hurlements d'Leo - Temps Suspendu (2006)\Les Hurlements d'Leo - Temps Suspendu.wav
     Peak level 98.8 %
     Range quality 100.0 %
     Test CRC E6A6EB52
     Copy CRC E6A6EB52
     Copy OK
No errors occurred
AccurateRip summary
Track  1  accurately ripped (confidence 1)  [6C0E452E]
Track  2  accurately ripped (confidence 1)  [4BF6010F]
Track  3  accurately ripped (confidence 1)  [75308326]
Track  4  accurately ripped (confidence 1)  [8F66820B]
Track  5  accurately ripped (confidence 1)  [1A8EA4C2]
Track  6  accurately ripped (confidence 1)  [5785ABB7]
Track  7  accurately ripped (confidence 1)  [3B1F6191]
Track  8  accurately ripped (confidence 1)  [0FC012AD]
Track  9  accurately ripped (confidence 1)  [EFC90A0F]
Track 10  accurately ripped (confidence 1)  [B6FFF857]
Track 11  accurately ripped (confidence 1)  [03C87B9B]
Track 12  accurately ripped (confidence 1)  [05FE9990]
Track 13  accurately ripped (confidence 1)  [E88F605C]
All tracks accurately ripped
End of status report
#77720 апреля 2009 вышел двухдисковый альбом-сборник "13 Ans de Caravaning".Первый диск представляет собой компиляцию песен 1996 - 2009 годов,на втором диске подборка живых выступлений группы.
Продолжительность: 01:15:51 + 35:03
Трэклист:
CD1:
1. Les Hurlements d'Leo - Louise (4:33)
2. Les Hurlements d'Leo - Toujours (5:04)
3. Les Hurlements d'Leo - La chambre (3:08)
4. Les Hurlements d'Leo - Mixeur (2:43)
5. Les Hurlements d'Leo - L'accordeoniste (3:03)
6. Les Hurlements d'Leo - Mon cul (4:17)
7. Les Hurlements d'Leo - La malle en mai (4:26)
8. Les Hurlements d'Leo - L'ame soeur (4:12)
9. Les Hurlements d'Leo - Fabulous and luxury holidays for todos in barbados (3:56)
10. Les Hurlements d'Leo - Roi des villes, roi des champs (4:18)
11. Les Hurlements d'Leo - La laisskwing (4:23)
12. Les Hurlements d'Leo - Dimanche а s'йtendre (2:44)
13. Les Hurlements d'Leo - La piave (3:42)
14. Les Hurlements d'Leo - Les vipиres aux poings (3:21)
15. Les Hurlements d'Leo - Ici d'ailleurs (3:41)
16. Les Hurlements d'Leo - Poиmes (2:33)
17. Les Hurlements d'Leo - Les pфles (3:48)
18. Les Hurlements d'Leo - Kokoreз (5:27)
19. Les Hurlements d'Leo - I'm a freak (4:30)
20. Les Hurlements d'Leo - La gare de caen (2:02)
CD2:
1. Les Hurlements d'Leo - A bout de souffle (3:13)
2. Les Hurlements d'Leo - Ethnique t amиre (2:55)
3. Les Hurlements d'Leo - Ten dollars Bill (5:35)
4. Les Hurlements d'Leo - Chipoti chipota (4:30)
5. Les Hurlements d'Leo - Les saints (3:44)
6. Les Hurlements d'Leo - Les mange-boules (3:00)
7. Les Hurlements d'Leo - Le parti des plus nombreux (4:39)
8. Les Hurlements d'Leo - Est-ce ainsi que les hommes vivent? (3:06)
9. Les Hurlements d'Leo - Le cinquiиme demi-tour (4:21)
Код:
Exact Audio Copy V0.99 prebeta 3 from 28. July 2007
EAC extraction logfile from 25. July 2009, 23:33
Les Hurlements d'Leo / 13 Ans de Caravaning
Used drive  : Optiarc DVD RW AD-7203A   Adapter: 1  ID: 1
Read mode               : Secure
Utilize accurate stream : Yes
Defeat audio cache      : Yes
Make use of C2 pointers : No
Read offset correction                      : 48
Overread into Lead-In and Lead-Out          : No
Fill up missing offset samples with silence : Yes
Delete leading and trailing silent blocks   : No
Null samples used in CRC calculations       : Yes
Used interface                              : Native Win32 interface for Win NT & 2000
Used output format              : User Defined Encoder
Selected bitrate                : 768 kBit/s
Quality                         : High
Add ID3 tag                     : No
Command line compressor         : D:\Program Files\Exact Audio Copy\Flac\flac.exe
Additional command line options : -8 -V -T "ARTIST=%a" -T "TITLE=%t" -T "ALBUM=%g" -T "DATE=%y" -T "TRACKNUMBER=%n" -T "GENRE=%m" -T "COMMENT=EAC FLAC -8" %s
TOC of the extracted CD
     Track |   Start  |  Length  | Start sector | End sector
    ---------------------------------------------------------
        1  |  0:00.00 |  4:33.32 |         0    |    20506
        2  |  4:33.32 |  5:04.25 |     20507    |    43331
        3  |  9:37.57 |  3:08.37 |     43332    |    57468
        4  | 12:46.19 |  2:43.24 |     57469    |    69717
        5  | 15:29.43 |  3:03.63 |     69718    |    83505
        6  | 18:33.31 |  4:17.65 |     83506    |   102845
        7  | 22:51.21 |  4:26.57 |    102846    |   122852
        8  | 27:18.03 |  4:12.49 |    122853    |   141801
        9  | 31:30.52 |  3:56.13 |    141802    |   159514
       10  | 35:26.65 |  4:18.15 |    159515    |   178879
       11  | 39:45.05 |  4:23.14 |    178880    |   198618
       12  | 44:08.19 |  2:44.22 |    198619    |   210940
       13  | 46:52.41 |  3:42.15 |    210941    |   227605
       14  | 50:34.56 |  3:21.62 |    227606    |   242742
       15  | 53:56.43 |  3:41.65 |    242743    |   259382
       16  | 57:38.33 |  2:33.23 |    259383    |   270880
       17  | 60:11.56 |  3:48.24 |    270881    |   288004
       18  | 64:00.05 |  5:27.62 |    288005    |   312591
       19  | 69:27.67 |  4:30.70 |    312592    |   332911
       20  | 73:58.62 |  2:02.00 |    332912    |   342061
Range status and errors
Selected range
     Filename D:\EAC Rips\Les Hurlements d'Leo - 13 Ans de Caravaning - CD1.wav
     Peak level 98.8 %
     Range quality 100.0 %
     Test CRC 6BEFE727
     Copy CRC 6BEFE727
     Copy OK
No errors occurred
AccurateRip summary
Track  1  not present in database
Track  2  not present in database
Track  3  not present in database
Track  4  not present in database
Track  5  not present in database
Track  6  not present in database
Track  7  not present in database
Track  8  not present in database
Track  9  not present in database
Track 10  not present in database
Track 11  not present in database
Track 12  not present in database
Track 13  not present in database
Track 14  not present in database
Track 15  not present in database
Track 16  not present in database
Track 17  not present in database
Track 18  not present in database
Track 19  not present in database
Track 20  not present in database
None of the tracks are present in the AccurateRip database
End of status report
-------------------------------------------------------------------------------------------------------------
Код:
Exact Audio Copy V0.99 prebeta 3 from 28. July 2007
EAC extraction logfile from 26. July 2009, 0:30
Les Hurlements d'Leo / 13 Ans de Caravaning
Used drive  : Optiarc DVD RW AD-7203A   Adapter: 1  ID: 1
Read mode               : Secure
Utilize accurate stream : Yes
Defeat audio cache      : Yes
Make use of C2 pointers : No
Read offset correction                      : 48
Overread into Lead-In and Lead-Out          : No
Fill up missing offset samples with silence : Yes
Delete leading and trailing silent blocks   : No
Null samples used in CRC calculations       : Yes
Used interface                              : Native Win32 interface for Win NT & 2000
Used output format              : User Defined Encoder
Selected bitrate                : 768 kBit/s
Quality                         : High
Add ID3 tag                     : No
Command line compressor         : D:\Program Files\Exact Audio Copy\Flac\flac.exe
Additional command line options : -8 -V -T "ARTIST=%a" -T "TITLE=%t" -T "ALBUM=%g" -T "DATE=%y" -T "TRACKNUMBER=%n" -T "GENRE=%m" -T "COMMENT=EAC FLAC -8" %s
TOC of the extracted CD
     Track |   Start  |  Length  | Start sector | End sector
    ---------------------------------------------------------
        1  |  0:00.00 |  3:13.63 |         0    |    14537
        2  |  3:13.63 |  2:55.73 |     14538    |    27735
        3  |  6:09.61 |  5:35.62 |     27736    |    52922
        4  | 11:45.48 |  4:30.27 |     52923    |    73199
        5  | 16:16.00 |  3:44.13 |     73200    |    90012
        6  | 20:00.13 |  3:00.22 |     90013    |   103534
        7  | 23:00.35 |  4:39.49 |    103535    |   124508
        8  | 27:40.09 |  3:06.41 |    124509    |   138499
        9  | 30:46.50 |  4:21.10 |    138500    |   158084
Range status and errors
Selected range
     Filename D:\EAC Rips\Les Hurlements d'Leo - 13 Ans de Caravaning - CD2.wav
     Peak level 100.0 %
     Range quality 100.0 %
     Test CRC 15921A31
     Copy CRC 15921A31
     Copy OK
No errors occurred
AccurateRip summary
Track  1  not present in database
Track  2  not present in database
Track  3  not present in database
Track  4  not present in database
Track  5  not present in database
Track  6  not present in database
Track  7  not present in database
Track  8  not present in database
Track  9  not present in database
None of the tracks are present in the AccurateRip database
End of status report
#777Продолжительность: 56:03
Трэклист:
1. Les Hurlements d'Leo - Bordel de Luxe (4:10)
2. Les Hurlements d'Leo - De l'Allure! (3:02)
3. Les Hurlements d'Leo - Ticket pour le Chaos (2:57)
4. Les Hurlements d'Leo - La Valse de Copenhague (4:00)
5. Les Hurlements d'Leo - La Haine (3:28)
6. Les Hurlements d'Leo - Trader of Love (3:38)
7. Les Hurlements d'Leo - No Hier (3:58)
8. Les Hurlements d'Leo - L'Allumette Facile (4:24)
9. Les Hurlements d'Leo - Black Heart in Progression (3:32)
10. Les Hurlements d'Leo - El Fuego (4:25)
11. Les Hurlements d'Leo - Grand Merci (4:51)
12. Les Hurlements d'Leo - Avril sur le Nil (13:38)
Код:
Exact Audio Copy V0.99 prebeta 3 from 28. July 2007
EAC extraction logfile from 6. July 2011, 3:41
Les Hurlements d'Leo / Bordel de Luxe
Used drive  : Optiarc DVD RW AD-7203A   Adapter: 1  ID: 1
Read mode               : Secure
Utilize accurate stream : Yes
Defeat audio cache      : Yes
Make use of C2 pointers : No
Read offset correction                      : 48
Overread into Lead-In and Lead-Out          : No
Fill up missing offset samples with silence : Yes
Delete leading and trailing silent blocks   : No
Null samples used in CRC calculations       : Yes
Used interface                              : Native Win32 interface for Win NT & 2000
Used output format              : User Defined Encoder
Selected bitrate                : 768 kBit/s
Quality                         : High
Add ID3 tag                     : No
Command line compressor         : D:\Program Files\Exact Audio Copy\Flac\flac.exe
Additional command line options : -8 -V -T "ARTIST=%a" -T "TITLE=%t" -T "ALBUM=%g" -T "DATE=%y" -T "TRACKNUMBER=%n" -T "GENRE=%m" -T "COMMENT=EAC FLAC -8" %s
TOC of the extracted CD
     Track |   Start  |  Length  | Start sector | End sector
    ---------------------------------------------------------
        1  |  0:00.00 |  4:10.53 |         0    |    18802
        2  |  4:10.53 |  3:01.63 |     18803    |    32440
        3  |  7:12.41 |  2:57.32 |     32441    |    45747
        4  | 10:09.73 |  3:59.55 |     45748    |    63727
        5  | 14:09.53 |  3:27.72 |     63728    |    79324
        6  | 17:37.50 |  3:37.42 |     79325    |    95641
        7  | 21:15.17 |  3:58.11 |     95642    |   113502
        8  | 25:13.28 |  4:24.00 |    113503    |   133302
        9  | 29:37.28 |  3:31.67 |    133303    |   149194
       10  | 33:09.20 |  4:25.37 |    149195    |   169106
       11  | 37:34.57 |  4:50.57 |    169107    |   190913
       12  | 42:25.39 | 13:38.16 |    190914    |   252279
Range status and errors
Selected range
     Filename D:\EAC Rips\Les Hurlements d'Leo - Bordel de Luxe.wav
     Peak level 97.7 %
     Range quality 100.0 %
     Test CRC C79B0049
     Copy CRC C79B0049
     Copy OK
No errors occurred
AccurateRip summary
Track  1  not present in database
Track  2  not present in database
Track  3  not present in database
Track  4  not present in database
Track  5  not present in database
Track  6  not present in database
Track  7  not present in database
Track  8  not present in database
Track  9  not present in database
Track 10  not present in database
Track 11  not present in database
Track 12  not present in database
None of the tracks are present in the AccurateRip database
End of status report
Альбомы,записанные совместно с другими коллективами
#777Продолжительность: 45:40
Трэклист:
1. Les Ogres de Barback & Les Hurlements d'Leo - Mostari (2:59)
2. Les Ogres de Barback & Les Hurlements d'Leo - Jojo (4:12)
3. Les Ogres de Barback & Les Hurlements d'Leo - Mytho (4:05)
4. Les Ogres de Barback & Les Hurlements d'Leo - Rue du temps (3:21)
5. Les Ogres de Barback & Les Hurlements d'Leo - Grand-mиre (3:42)
6. Les Ogres de Barback & Les Hurlements d'Leo - Carcarиs (2:34)
7. Les Ogres de Barback & Les Hurlements d'Leo - Stari most (4:03)
8. Les Ogres de Barback & Les Hurlements d'Leo - Rue de Paname (4:16)
9. Les Ogres de Barback & Les Hurlements d'Leo - Cirrhose (3:31)
10. Les Ogres de Barback & Les Hurlements d'Leo - La ruelle (2:54)
11. Les Ogres de Barback & Les Hurlements d'Leo - La gare de Caen (2:01)
12. Les Ogres de Barback & Les Hurlements d'Leo - Salut а toi (8:02)
Код:
Exact Audio Copy V0.99 prebeta 3 from 28. July 2007
EAC extraction logfile from 6. January 2010, 13:11
Les Ogres de Barback & Les Hurlements d'Leo / Un air, deux familles
Used drive  : Optiarc DVD RW AD-7203A   Adapter: 1  ID: 1
Read mode               : Secure
Utilize accurate stream : Yes
Defeat audio cache      : Yes
Make use of C2 pointers : No
Read offset correction                      : 48
Overread into Lead-In and Lead-Out          : No
Fill up missing offset samples with silence : Yes
Delete leading and trailing silent blocks   : No
Null samples used in CRC calculations       : Yes
Used interface                              : Native Win32 interface for Win NT & 2000
Used output format              : User Defined Encoder
Selected bitrate                : 768 kBit/s
Quality                         : High
Add ID3 tag                     : No
Command line compressor         : D:\Program Files\Exact Audio Copy\Flac\flac.exe
Additional command line options : -8 -V -T "ARTIST=%a" -T "TITLE=%t" -T "ALBUM=%g" -T "DATE=%y" -T "TRACKNUMBER=%n" -T "GENRE=%m" -T "COMMENT=EAC FLAC -8" %s
TOC of the extracted CD
     Track |   Start  |  Length  | Start sector | End sector
    ---------------------------------------------------------
        1  |  0:00.00 |  2:59.32 |         0    |    13456
        2  |  2:59.32 |  4:12.23 |     13457    |    32379
        3  |  7:11.55 |  4:05.35 |     32380    |    50789
        4  | 11:17.15 |  3:21.16 |     50790    |    65880
        5  | 14:38.31 |  3:42.69 |     65881    |    82599
        6  | 18:21.25 |  2:34.39 |     82600    |    94188
        7  | 20:55.64 |  4:03.15 |     94189    |   112428
        8  | 24:59.04 |  4:16.18 |    112429    |   131646
        9  | 29:15.22 |  3:31.01 |    131647    |   147472
       10  | 32:46.23 |  2:54.07 |    147473    |   160529
       11  | 35:40.30 |  2:01.69 |    160530    |   169673
       12  | 37:42.24 |  8:02.46 |    169674    |   205869
Range status and errors
Selected range
     Filename D:\EAC Rips\Les Ogres de Barback & Les Hurlements d'Leo - Un Air, Deux Familles.wav
     Peak level 98.8 %
     Range quality 100.0 %
     Test CRC 4222E04B
     Copy CRC 4222E04B
     Copy OK
No errors occurred
AccurateRip summary
Track  1  cannot be verified as accurate (confidence 1)  [3D82B40E], AccurateRip returned [24E6E98F]
Track  2  cannot be verified as accurate (confidence 1)  [702BFBDC], AccurateRip returned [D945D9CB]
Track  3  cannot be verified as accurate (confidence 1)  [A702C1DE], AccurateRip returned [D86E5995]
Track  4  cannot be verified as accurate (confidence 1)  [225B6F12], AccurateRip returned [759A827B]
Track  5  cannot be verified as accurate (confidence 1)  [4D70684D], AccurateRip returned [420B7174]
Track  6  cannot be verified as accurate (confidence 1)  [59541FC6], AccurateRip returned [1B15B467]
Track  7  cannot be verified as accurate (confidence 1)  [C436DF4A], AccurateRip returned [2C7D0361]
Track  8  cannot be verified as accurate (confidence 1)  [514E8853], AccurateRip returned [FAFF90BE]
Track  9  cannot be verified as accurate (confidence 1)  [B1860585], AccurateRip returned [4828472C]
Track 10  cannot be verified as accurate (confidence 1)  [A7232899], AccurateRip returned [F63B343D]
Track 11  cannot be verified as accurate (confidence 1)  [5881CAAA], AccurateRip returned [C19494A8]
Track 12  cannot be verified as accurate (confidence 1)  [18BE909D], AccurateRip returned [90497F78]
No tracks could be verified as accurate
You may have a different pressing from the one(s) in the database
End of status report
#777Продолжительность: 20:58
Трэклист:
1. Les Hurlements d'Leo & 17 Hippies - Jah Schneider (3:40)
2. Les Hurlements d'Leo & 17 Hippies - Sexy Mariachi (3:59)
3. Les Hurlements d'Leo & 17 Hippies - Time Has Left Me, Ma Belle (3:54)
4. Les Hurlements d'Leo & 17 Hippies - Leolos Blues (3:15)
5. Les Hurlements d'Leo & 17 Hippies - Mixeur (2:43)
6. Les Hurlements d'Leo & 17 Hippies - Ifni (3:27)
Код:
Exact Audio Copy V0.99 prebeta 3 from 28. July 2007
EAC extraction logfile from 22. July 2010, 23:17
Les Hurlements d'Leo & 17 Hippies / Hardcore Trobadors
Used drive  : Optiarc DVD RW AD-7203A   Adapter: 1  ID: 1
Read mode               : Secure
Utilize accurate stream : Yes
Defeat audio cache      : Yes
Make use of C2 pointers : No
Read offset correction                      : 48
Overread into Lead-In and Lead-Out          : No
Fill up missing offset samples with silence : Yes
Delete leading and trailing silent blocks   : No
Null samples used in CRC calculations       : Yes
Used interface                              : Native Win32 interface for Win NT & 2000
Used output format              : User Defined Encoder
Selected bitrate                : 768 kBit/s
Quality                         : High
Add ID3 tag                     : No
Command line compressor         : D:\Program Files\Exact Audio Copy\Flac\flac.exe
Additional command line options : -8 -V -T "ARTIST=%a" -T "TITLE=%t" -T "ALBUM=%g" -T "DATE=%y" -T "TRACKNUMBER=%n" -T "GENRE=%m" -T "COMMENT=EAC FLAC -8" %s
TOC of the extracted CD
     Track |   Start  |  Length  | Start sector | End sector
    ---------------------------------------------------------
        1  |  0:00.00 |  3:40.00 |         0    |    16499
        2  |  3:40.00 |  3:59.50 |     16500    |    34474
        3  |  7:39.50 |  3:54.06 |     34475    |    52030
        4  | 11:33.56 |  3:15.35 |     52031    |    66690
        5  | 14:49.16 |  2:43.36 |     66691    |    78951
        6  | 17:32.52 |  3:27.65 |     78952    |    94541
Range status and errors
Selected range
     Filename D:\EAC Rips\Les Hurlements d'Leo & 17 Hippies - Hardcore Trobadors.wav
     Peak level 100.0 %
     Range quality 100.0 %
     Test CRC E4FD7BFE
     Copy CRC E4FD7BFE
     Copy OK
No errors occurred
AccurateRip summary
Track  1  not present in database
Track  2  not present in database
Track  3  not present in database
Track  4  not present in database
Track  5  not present in database
Track  6  not present in database
None of the tracks are present in the AccurateRip database
End of status report
Код:
REM GENRE Folk/Rock
REM DATE 2004
REM DISCID 4304EC06
REM COMMENT "ExactAudioCopy v0.99pb3"
PERFORMER "Les Hurlements d'Leo & 17 Hippies"
TITLE "Hardcore Trobadors"
FILE "Les Hurlements d'Leo & 17 Hippies - Hardcore Trobadors.flac" WAVE
  TRACK 01 AUDIO
    TITLE "Jah Schneider"
    PERFORMER "Les Hurlements d'Leo & 17 Hippies"
    INDEX 01 00:00:00
  TRACK 02 AUDIO
    TITLE "Sexy Mariachi"
    PERFORMER "Les Hurlements d'Leo & 17 Hippies"
    INDEX 01 03:40:00
  TRACK 03 AUDIO
    TITLE "Time Has Left Me, Ma Belle"
    PERFORMER "Les Hurlements d'Leo & 17 Hippies"
    INDEX 00 07:37:51
    INDEX 01 07:39:50
  TRACK 04 AUDIO
    TITLE "Leolos Blues"
    PERFORMER "Les Hurlements d'Leo & 17 Hippies"
    INDEX 00 11:31:57
    INDEX 01 11:33:56
  TRACK 05 AUDIO
    TITLE "Mixeur"
    PERFORMER "Les Hurlements d'Leo & 17 Hippies"
    INDEX 00 14:47:17
    INDEX 01 14:49:16
  TRACK 06 AUDIO
    TITLE "Ifni"
    PERFORMER "Les Hurlements d'Leo & 17 Hippies"
    INDEX 00 17:31:62
    INDEX 01 17:32:52
#777Продолжительность: 43:24
Трэклист:
1. Les Hurlements d'Leo - Kokoreз (5:26)
2. Les Hurlements d'Leo - arte y Majestad '07 (5:32)
3. Les Hurlements d'Leo - Ordine pubblico (4:17)
4. Les Hurlements d'Leo - Canifs (3:34)
5. Les Hurlements d'Leo - Fleur du temps (2:55)
6. Les Hurlements d'Leo - Caracas, Lusaka, Berlin (Bordeaux, Lecce, Firenze) (2:46)
7. Les Hurlements d'Leo - Consensus de pensйe politique а propos de l'Etat Social entre Monsieur Nicola... (0:10)
8. Les Hurlements d'Leo - Valse monkey (2:27)
9. Les Hurlements d'Leo - Devil (Karoutcho) (2:39)
10. Les Hurlements d'Leo - Catalunya '936 (5:36)
11. Les Hurlements d'Leo - Chi eravamo (2:53)
12. Les Hurlements d'Leo - Girl from Gibraltar (5:09)
Код:
Exact Audio Copy V0.99 prebeta 3 from 28. July 2007
EAC extraction logfile from 25. July 2009, 22:02
Les Hurlements d'Leo / Constitution de la Republique du Sauvage
Used drive  : Optiarc DVD RW AD-7203A   Adapter: 1  ID: 1
Read mode               : Secure
Utilize accurate stream : Yes
Defeat audio cache      : Yes
Make use of C2 pointers : No
Read offset correction                      : 48
Overread into Lead-In and Lead-Out          : No
Fill up missing offset samples with silence : Yes
Delete leading and trailing silent blocks   : No
Null samples used in CRC calculations       : Yes
Used interface                              : Native Win32 interface for Win NT & 2000
Used output format              : User Defined Encoder
Selected bitrate                : 768 kBit/s
Quality                         : High
Add ID3 tag                     : No
Command line compressor         : D:\Program Files\Exact Audio Copy\Flac\flac.exe
Additional command line options : -8 -V -T "ARTIST=%a" -T "TITLE=%t" -T "ALBUM=%g" -T "DATE=%y" -T "TRACKNUMBER=%n" -T "GENRE=%m" -T "COMMENT=EAC FLAC -8" %s
TOC of the extracted CD
     Track |   Start  |  Length  | Start sector | End sector
    ---------------------------------------------------------
        1  |  0:00.00 |  5:26.29 |         0    |    24478
        2  |  5:26.29 |  5:32.25 |     24479    |    49403
        3  | 10:58.54 |  4:17.40 |     49404    |    68718
        4  | 15:16.19 |  3:34.73 |     68719    |    84841
        5  | 18:51.17 |  2:55.15 |     84842    |    97981
        6  | 21:46.32 |  2:46.30 |     97982    |   110461
        7  | 24:32.62 |  0:10.74 |    110462    |   111285
        8  | 24:43.61 |  2:27.61 |    111286    |   122371
        9  | 27:11.47 |  2:39.33 |    122372    |   134329
       10  | 29:51.05 |  5:36.43 |    134330    |   159572
       11  | 35:27.48 |  2:53.71 |    159573    |   172618
       12  | 38:21.44 |  5:09.63 |    172619    |   195856
Range status and errors
Selected range
     Filename D:\EAC Rips\Les Hurlements d'Leo - Constitution de la Republique du Sauvage.wav
     Peak level 99.9 %
     Range quality 100.0 %
     Test CRC 21DB8C51
     Copy CRC 21DB8C51
     Copy OK
No errors occurred
AccurateRip summary
Track  1  not present in database
Track  2  not present in database
Track  3  not present in database
Track  4  not present in database
Track  5  not present in database
Track  6  not present in database
Track  7  not present in database
Track  8  not present in database
Track  9  not present in database
Track 10  not present in database
Track 11  not present in database
Track 12  not present in database
None of the tracks are present in the AccurateRip database
End of status report
Доп. информация: при оформлении использовалась информация с сайта http://ru.wikipedia.org
Правила, инструкции, FAQ!!!
Торрент  Добавлен [01 янв 2020, 22:59] Скачать торрент Магнет ссылка
Скачать торрент
[ Размер 23.55 КБ / Просмотров 11 ]

Статус
Проверен 
 
Размер  3.26 ГБ
Приватный: Нет (DHT включён)
.torrent скачан  0
 


     Отправить личное сообщение
   
Страница 1 из 1
Показать сообщения за:  Поле сортировки  
Начать новую тему Ответить на тему


Сейчас этот форум просматривают: нет зарегистрированных пользователей и гости: 0


Вы не можете начинать темы
Вы не можете отвечать на сообщения
Вы не можете редактировать свои сообщения
Вы не можете удалять свои сообщения
Вы не можете добавлять вложения

Перейти:  
cron