Начать новую тему Ответить на тему
Статистика раздачи
Размер: 320.29 МБ | Добавлен: 01 янв 2020, 23:02 | Скачали: 0
Сидеров: 1  [0 байт/сек]    Личеров: 0  [0 байт/сек]
Пред. тема | След. тема 

Автор
Сообщение

СообщениеДобавлено: 01 янв 2020, 23:02 

Ответить с цитатой 

Juliette / Rimes Feminines
Жанр: Chanson
Носитель: CD
Страна-производитель диска: EU
Год издания: 2012
Издатель (лейбл): Universal
Страна: France
Аудиокодек: FLAC (*.flac)
Тип рипа: image+.cue
Битрейт аудио: lossless
Продолжительность: 65:58
Источник (релизер): Диск из собственной коллекции
Наличие сканов в содержимом раздачи: нет
Треклист:
1. Rimes Feminines
2. L'amour En Pointill
3. La Petite Fille Au Piano
4. Heureuse
5. La Geante
6. Revue De Detail
7. Berceuse Pour Carlitos
8. La Belle Abbesse
9. Consorama
10. Tueuses
11. Remontrances
12. I'm Still Here (Tenir)
13. Oraison
14. Un Ange Passe
Код:
Exact Audio Copy V1.0 beta 3 from 29. August 2011
Отчёт EAC об извлечении, выполненном 13. июля 2014, 16:18
Juliette / Rimes féminines
Дисковод: MATSHITADVD-RAM UJ8B0AW   Adapter: 0  ID: 1
Режим чтения                 : Достоверность
Использование точного потока : Да
Отключение кэша аудио        : Да
Использование указателей C2  : Нет
Коррекция смещения при чтении                     : 102
Способность читать области Lead-in и Lead-out     : Нет
Заполнение пропущенных сэмплов тишиной            : Да
Удаление блоков с тишиной в начале и конце        : Нет
При вычислениях CRC использовались нулевые сэмплы : Да
Интерфейс                                         : Встроенный Win32-интерфейс для Win NT/2000
Выходной формат          : Пользовательский кодировщик
Выбранный битрейт        : 128 kBit/s
Качество                 : Высокий
Добавление ID3-тега      : Нет
Утилита сжатия           : C:\Program Files (x86)\Exact Audio Copy\Flac\flac.exe
Дополнительные параметры : -V -8 %source%
TOC извлечённого CD
     Трек |   Старт  | Длительность | Начальный сектор | Конечный сектор
    ---------------------------------------------------------------------
       1  |  0:00.00 |    5:38.72   |           0      |      25421
       2  |  5:38.72 |    5:18.28   |       25422      |      49299
       3  | 10:57.25 |    4:09.00   |       49300      |      67974
       4  | 15:06.25 |    4:16.45   |       67975      |      87219
       5  | 19:22.70 |    5:18.22   |       87220      |     111091
       6  | 24:41.17 |    4:23.08   |      111092      |     130824
       7  | 29:04.25 |    4:10.12   |      130825      |     149586
       8  | 33:14.37 |    5:31.00   |      149587      |     174411
       9  | 38:45.37 |    2:55.10   |      174412      |     187546
      10  | 41:40.47 |    3:25.20   |      187547      |     202941
      11  | 45:05.67 |    3:47.40   |      202942      |     220006
      12  | 48:53.32 |    5:31.15   |      220007      |     244846
      13  | 54:24.47 |    6:51.65   |      244847      |     275736
      14  | 61:16.37 |    4:41.35   |      275737      |     296846
Характеристики диапазона извлечения и сообщения об ошибках
Выбранный диапазон
     Имя файла C:\Мои раздачи\Juliette - Rimes féminines\Juliette - Rimes féminines.wav
     Пиковый уровень 98.6 %
     Скорость извлечения 2.1 X
     Качество диапазона 100.0 %
     CRC теста 37C9EDCE
     CRC копии 37C9EDCE
     Копирование... OK
Ошибок не произошло
AccurateRip: сводка
Трек  1  точность не определена (достоверность 2)  [E53D0A66], AccurateRip вернул [A4F232EF]  (AR v2)
Трек  2  точность не определена (достоверность 2)  [30B59B81], AccurateRip вернул [2793CD85]  (AR v2)
Трек  3  точность не определена (достоверность 2)  [DCBB92D9], AccurateRip вернул [41422BAE]  (AR v2)
Трек  4  точность не определена (достоверность 2)  [ED42AA2B], AccurateRip вернул [0DAEFFB5]  (AR v2)
Трек  5  точность не определена (достоверность 2)  [44E98245], AccurateRip вернул [03691F39]  (AR v2)
Трек  6  точность не определена (достоверность 2)  [E444B50E], AccurateRip вернул [071BAB73]  (AR v2)
Трек  7  точность не определена (достоверность 2)  [91E1B2E9], AccurateRip вернул [5AB425C9]  (AR v2)
Трек  8  точность не определена (достоверность 2)  [C1B2A171], AccurateRip вернул [C86E5B5E]  (AR v2)
Трек  9  точность не определена (достоверность 2)  [D0475453], AccurateRip вернул [92DBB167]  (AR v2)
Трек 10  точность не определена (достоверность 2)  [FC8187F2], AccurateRip вернул [FBD245E8]  (AR v2)
Трек 11  точность не определена (достоверность 2)  [80B7CBA8], AccurateRip вернул [50E89B96]  (AR v2)
Трек 12  точность не определена (достоверность 2)  [C950B520], AccurateRip вернул [09731E7E]  (AR v2)
Трек 13  точность не определена (достоверность 2)  [C2AF9569], AccurateRip вернул [D229749A]  (AR v2)
Трек 14  точность не определена (достоверность 2)  [E66E8FAD], AccurateRip вернул [12345A3B]  (AR v2)
Ни один трек не прошёл проверки на точность
В вашей базе может быть иной вариант штамповки диска
Конец отчёта
==== Контрольная сумма отчёта 6B796D50EFECECD95D7F05CE305F7516713B106C164BEECECB803DB5805B16EA ====
Код:
REM GENRE Chanson
REM DATE 1996
REM DISCID D80F750E
REM COMMENT "ExactAudioCopy v1.0b3"
PERFORMER "Juliette"
TITLE "Rimes feminines"
FILE "Juliette - Rimes feminines.flac" WAVE
  TRACK 01 AUDIO
    TITLE "Rimes feminines"
    PERFORMER "Juliette"
    INDEX 01 00:00:00
  TRACK 02 AUDIO
    TITLE "L'amour en pointille"
    PERFORMER "Juliette"
    INDEX 00 05:36:45
    INDEX 01 05:38:72
  TRACK 03 AUDIO
    TITLE "La petite fille au piano"
    PERFORMER "Juliette"
    INDEX 00 10:55:15
    INDEX 01 10:57:25
  TRACK 04 AUDIO
    TITLE "Heureuse"
    PERFORMER "Juliette"
    INDEX 00 15:03:15
    INDEX 01 15:06:25
  TRACK 05 AUDIO
    TITLE "La geante"
    PERFORMER "Juliette"
    INDEX 00 19:20:55
    INDEX 01 19:22:70
  TRACK 06 AUDIO
    TITLE "Revue de detail"
    PERFORMER "Juliette"
    INDEX 00 24:39:40
    INDEX 01 24:41:17
  TRACK 07 AUDIO
    TITLE "Berceuse pour Carlitos"
    PERFORMER "Juliette"
    INDEX 00 29:02:37
    INDEX 01 29:04:25
  TRACK 08 AUDIO
    TITLE "La belle abbesse"
    PERFORMER "Juliette"
    INDEX 00 33:12:37
    INDEX 01 33:14:37
  TRACK 09 AUDIO
    TITLE "Consorama"
    PERFORMER "Juliette"
    INDEX 00 38:43:40
    INDEX 01 38:45:37
  TRACK 10 AUDIO
    TITLE "Tueuses"
    PERFORMER "Juliette"
    INDEX 00 41:38:52
    INDEX 01 41:40:47
  TRACK 11 AUDIO
    TITLE "Remontrances"
    PERFORMER "Juliette"
    INDEX 00 45:02:67
    INDEX 01 45:05:67
  TRACK 12 AUDIO
    TITLE "I'm still here (tenir)"
    PERFORMER "Juliette"
    INDEX 00 48:51:45
    INDEX 01 48:53:32
  TRACK 13 AUDIO
    TITLE "Oraison"
    PERFORMER "Juliette"
    INDEX 00 54:19:12
    INDEX 01 54:24:47
  TRACK 14 AUDIO
    TITLE "Un ange passe"
    PERFORMER "Juliette"
    INDEX 00 61:14:62
    INDEX 01 61:16:37
Правила, инструкции, FAQ!!!
Торрент  Добавлен [01 янв 2020, 23:02] Скачать торрент Магнет ссылка
Скачать торрент
[ Размер 13.18 КБ / Просмотров 5 ]

Статус
Проверен 
 
Размер  320.29 МБ
Приватный: Нет (DHT включён)
.torrent скачан  0
 


     Отправить личное сообщение
   
Страница 1 из 1
Показать сообщения за:  Поле сортировки  
Начать новую тему Ответить на тему


Сейчас этот форум просматривают: нет зарегистрированных пользователей и гости: 0


Вы не можете начинать темы
Вы не можете отвечать на сообщения
Вы не можете редактировать свои сообщения
Вы не можете удалять свои сообщения
Вы не можете добавлять вложения

Перейти:  
cron