Начать новую тему Ответить на тему
Статистика раздачи
Размер: 257.89 МБ | Добавлен: 01 янв 2020, 23:02 | Скачали: 0
Сидеров: 1  [0 байт/сек]    Личеров: 0  [0 байт/сек]
Пред. тема | След. тема 

Автор
Сообщение

СообщениеДобавлено: 01 янв 2020, 23:02 

Ответить с цитатой 

Juliette / Assassins sans couteaux
Жанр: Chanson
Носитель: CD
Страна-производитель диска: EU
Год издания: 2009
Издатель (лейбл): Universal
Страна: France
Аудиокодек: FLAC (*.flac)
Тип рипа: image+.cue
Битрейт аудио: lossless
Продолжительность: 48:06
Источник (релизер): Диск из собственной коллекции
Наличие сканов в содержимом раздачи: нет
Треклист:
1. Assassins Sans Couteaux
2. La Pagode Du Cheval Blanc
3. J'me Tache Moi
4. L'toile Rouge
5. Mayerling
6. Lucy
7. La Ballade D'eole
8. C'est L'Hiver
9. Les Yeux D'or
10. Le Prince Des Amphores
11. Francisco Alegre
Код:
Exact Audio Copy V1.0 beta 3 from 29. August 2011
Отчёт EAC об извлечении, выполненном 13. июля 2014, 14:56
Juliette / Assassins sans couteaux
Дисковод: MATSHITADVD-RAM UJ8B0AW   Adapter: 0  ID: 1
Режим чтения                 : Достоверность
Использование точного потока : Да
Отключение кэша аудио        : Да
Использование указателей C2  : Нет
Коррекция смещения при чтении                     : 102
Способность читать области Lead-in и Lead-out     : Нет
Заполнение пропущенных сэмплов тишиной            : Да
Удаление блоков с тишиной в начале и конце        : Нет
При вычислениях CRC использовались нулевые сэмплы : Да
Интерфейс                                         : Встроенный Win32-интерфейс для Win NT/2000
Выходной формат          : Пользовательский кодировщик
Выбранный битрейт        : 128 kBit/s
Качество                 : Высокий
Добавление ID3-тега      : Нет
Утилита сжатия           : C:\Program Files (x86)\Exact Audio Copy\Flac\flac.exe
Дополнительные параметры : -V -8 %source%
TOC извлечённого CD
     Трек |   Старт  | Длительность | Начальный сектор | Конечный сектор
    ---------------------------------------------------------------------
       1  |  0:00.32 |    3:16.18   |          32      |      14749
       2  |  3:16.50 |    4:31.60   |       14750      |      35134
       3  |  7:48.35 |    3:54.50   |       35135      |      52734
       4  | 11:43.10 |    5:12.00   |       52735      |      76134
       5  | 16:55.10 |    3:41.27   |       76135      |      92736
       6  | 20:36.37 |    4:12.38   |       92737      |     111674
       7  | 24:49.00 |    5:55.30   |      111675      |     138329
       8  | 30:44.30 |    3:44.05   |      138330      |     155134
       9  | 34:28.35 |    3:22.47   |      155135      |     170331
      10  | 37:51.07 |    5:25.23   |      170332      |     194729
      11  | 43:16.30 |    4:49.65   |      194730      |     216469
Характеристики диапазона извлечения и сообщения об ошибках
Выбранный диапазон
     Имя файла C:\Мои раздачи\Juliette - Assassins sans couteaux\Juliette - Assassins sans couteaux.wav
     Пиковый уровень 100.0 %
     Скорость извлечения 1.9 X
     Качество диапазона 100.0 %
     CRC теста 17429AEF
     CRC копии 17429AEF
     Копирование... OK
Ошибок не произошло
AccurateRip: сводка
Трек  1  точность не определена (достоверность 6)  [BEF41EFC], AccurateRip вернул [A231EEE7]  (AR v2)
Трек  2  точность не определена (достоверность 6)  [C45FE018], AccurateRip вернул [AB66F50D]  (AR v2)
Трек  3  точность не определена (достоверность 6)  [D9CCF22B], AccurateRip вернул [D8C93193]  (AR v2)
Трек  4  точность не определена (достоверность 6)  [1E6D3EA3], AccurateRip вернул [0E25FF40]  (AR v2)
Трек  5  точность не определена (достоверность 6)  [67379DFF], AccurateRip вернул [BD6F0F3C]  (AR v2)
Трек  6  точность не определена (достоверность 6)  [EE5D142D], AccurateRip вернул [183691B1]  (AR v2)
Трек  7  точность не определена (достоверность 6)  [7CE9EAB3], AccurateRip вернул [038F94F2]  (AR v2)
Трек  8  точность не определена (достоверность 6)  [6672F3C9], AccurateRip вернул [612D4F0B]  (AR v2)
Трек  9  точность не определена (достоверность 6)  [B80F38D9], AccurateRip вернул [14342BB7]  (AR v2)
Трек 10  точность не определена (достоверность 5)  [53737673], AccurateRip вернул [E6372D10]  (AR v2)
Трек 11  точность не определена (достоверность 6)  [24D615CB], AccurateRip вернул [DB95AFFC]  (AR v2)
Ни один трек не прошёл проверки на точность
В вашей базе может быть иной вариант штамповки диска
Конец отчёта
==== Контрольная сумма отчёта 9A48352D40A4DDA265303E31DEE157E9946030BCF43B1C0F9D3FD0E4A16C420F ====
Код:
REM GENRE Other
REM DISCID 930B460B
REM COMMENT "ExactAudioCopy v1.0b3"
PERFORMER "Juliette"
TITLE "Assassins sans couteaux"
FILE "Juliette - Assassins sans couteaux.flac" WAVE
  TRACK 01 AUDIO
    TITLE "Assassins sans couteaux"
    PERFORMER "Juliette"
    INDEX 00 00:00:00
    INDEX 01 00:00:32
  TRACK 02 AUDIO
    TITLE "La pagode du cheval blanc"
    PERFORMER "Juliette"
    INDEX 00 03:15:01
    INDEX 01 03:16:50
  TRACK 03 AUDIO
    TITLE "Moi, j'me tache"
    PERFORMER "Juliette"
    INDEX 00 07:44:73
    INDEX 01 07:48:35
  TRACK 04 AUDIO
    TITLE "L'Etoile rouge"
    PERFORMER "Juliette"
    INDEX 00 11:37:70
    INDEX 01 11:43:10
  TRACK 05 AUDIO
    TITLE "Mayerling"
    PERFORMER "Juliette"
    INDEX 00 16:51:43
    INDEX 01 16:55:10
  TRACK 06 AUDIO
    TITLE "Lucy"
    PERFORMER "Juliette"
    INDEX 01 20:36:37
  TRACK 07 AUDIO
    TITLE "La ballade d'Eole"
    PERFORMER "Juliette"
    INDEX 00 24:46:68
    INDEX 01 24:49:00
  TRACK 08 AUDIO
    TITLE "C'est l'hiver"
    PERFORMER "Juliette"
    INDEX 00 30:40:23
    INDEX 01 30:44:30
  TRACK 09 AUDIO
    TITLE "Les yeux d'or"
    PERFORMER "Juliette"
    INDEX 00 34:25:23
    INDEX 01 34:28:35
  TRACK 10 AUDIO
    TITLE "Le prince des amphores"
    PERFORMER "Juliette"
    INDEX 00 37:44:66
    INDEX 01 37:51:07
  TRACK 11 AUDIO
    TITLE "Francisco Alegre"
    PERFORMER "Juliette"
    INDEX 00 43:13:11
    INDEX 01 43:16:30
Правила, инструкции, FAQ!!!
Торрент  Добавлен [01 янв 2020, 23:02] Скачать торрент Магнет ссылка
Скачать торрент
[ Размер 10.78 КБ / Просмотров 4 ]

Статус
Проверен 
 
Размер  257.89 МБ
Приватный: Нет (DHT включён)
.torrent скачан  0
 


     Отправить личное сообщение
   
Страница 1 из 1
Показать сообщения за:  Поле сортировки  
Начать новую тему Ответить на тему


Сейчас этот форум просматривают: нет зарегистрированных пользователей и гости: 0


Вы не можете начинать темы
Вы не можете отвечать на сообщения
Вы не можете редактировать свои сообщения
Вы не можете удалять свои сообщения
Вы не можете добавлять вложения

Перейти:  
cron