Начать новую тему Ответить на тему
Статистика раздачи
Размер: 250.08 МБ | Добавлен: 01 янв 2020, 22:50 | Скачали: 0
Сидеров: 0  [0 байт/сек]    Личеров: 0  [0 байт/сек]
Пред. тема | След. тема 

Автор
Сообщение

СообщениеДобавлено: 01 янв 2020, 22:50 

Ответить с цитатой 

Julien Clerc: Fais-Moi Une Place (1990)
Жанр: Chanson
Страна-производитель диска: France
Год издания: 1990
Издатель (лейбл): Virgin
Номер по каталогу: 30725
Аудиокодек: FLAC (*.flac)
Тип рипа: tracks+.cue
Битрейт аудио: lossless
Продолжительность: 00:41:08
Источник (релизер): рип мой. CD тоже.
Наличие сканов в содержимом раздачи: нет. под спойлером фото.
Треклист:
01. Le verrou (2:23)
02. Echafaudages (3:28)
03. Avisos (3:11)
04. Gare a la casse (3:53)
05. Fille du feu (4:17)
06. Foutu (4:04)
07. Fais-moi une place (3:35)
08. Petits pois lardons (4:30)
09. Le chiendent (3:41)
10. Petit Joseph (4:13)
11. NouveaubBig bang (2:41)
12. Le verrou (Reprise) (1:13)
Код:
Exact Audio Copy V1.0 beta 1 from 15. November 2010
EAC extraction logfile from 25. May 2012, 16:36
Julien Clerc / Fais-Moi Une Place
Used drive  : Optiarc DVD RW AD-7200A   Adapter: 0  ID: 0
Read mode               : Secure
Utilize accurate stream : Yes
Defeat audio cache      : Yes
Make use of C2 pointers : No
Read offset correction                      : 48
Overread into Lead-In and Lead-Out          : No
Fill up missing offset samples with silence : Yes
Delete leading and trailing silent blocks   : No
Null samples used in CRC calculations       : Yes
Used interface                              : Native Win32 interface for Win NT & 2000
Gap handling                                : Appended to previous track
Used output format              : User Defined Encoder
Selected bitrate                : 768 kBit/s
Quality                         : High
Add ID3 tag                     : No
Command line compressor         : C:\Program Files\Exact Audio Copy\Flac\flac.exe
Additional command line options : -8 -V -T "ARTIST=%a" -T "TITLE=%t" -T "ALBUM=%g" -T "DATE=%y" -T "TRACKNUMBER=%n" -T "TOTALTRACKS=%x" -T "GENRE=%m" -T "ALBUMARTIST=%v" -T "ALBUM ARTIST=%v" -T "COMMENT=EAC Secure Mode, Test & Copy, AccurateRip, FLAC -8" %s
TOC of the extracted CD
     Track |   Start  |  Length  | Start sector | End sector
    ---------------------------------------------------------
        1  |  0:00.32 |  2:22.40 |        32    |    10721
        2  |  2:22.72 |  3:27.65 |     10722    |    26311
        3  |  5:50.62 |  3:10.45 |     26312    |    40606
        4  |  9:01.32 |  3:52.50 |     40607    |    58056
        5  | 12:54.07 |  4:16.73 |     58057    |    77329
        6  | 17:11.05 |  4:03.50 |     77330    |    95604
        7  | 21:14.55 |  3:35.32 |     95605    |   111761
        8  | 24:50.12 |  4:30.08 |    111762    |   132019
        9  | 29:20.20 |  3:40.47 |    132020    |   148566
       10  | 33:00.67 |  4:12.55 |    148567    |   167521
       11  | 37:13.47 |  2:41.08 |    167522    |   179604
       12  | 39:54.55 |  1:13.32 |    179605    |   185111
Track  1
     Filename E:\temp\01 - Le verrou.wav
     Pre-gap length  0:00:02.42
     Peak level 99.9 %
     Extraction speed 2.0 X
     Track quality 100.0 %
     Test CRC FC5F7ABE
     Copy CRC FC5F7ABE
     Accurately ripped (confidence 2)  [1AB36DA2]
     Copy OK
Track  2
     Filename E:\temp\02 - Echafaudages.wav
     Peak level 99.9 %
     Extraction speed 2.1 X
     Track quality 99.9 %
     Test CRC AD3711D5
     Copy CRC AD3711D5
     Accurately ripped (confidence 2)  [90015E17]
     Copy OK
Track  3
     Filename E:\temp\03 - Avisos.wav
     Peak level 99.9 %
     Extraction speed 2.2 X
     Track quality 99.9 %
     Test CRC BA9B1A7C
     Copy CRC BA9B1A7C
     Accurately ripped (confidence 2)  [238AB6CE]
     Copy OK
Track  4
     Filename E:\temp\04 - Gare a la casse.wav
     Pre-gap length  0:00:00.22
     Peak level 100.0 %
     Extraction speed 2.8 X
     Track quality 100.0 %
     Test CRC F1DD6AF5
     Copy CRC F1DD6AF5
     Accurately ripped (confidence 2)  [675213E6]
     Copy OK
Track  5
     Filename E:\temp\05 - Fille du feu.wav
     Pre-gap length  0:00:00.29
     Peak level 98.0 %
     Extraction speed 3.1 X
     Track quality 100.0 %
     Test CRC 56C55E4F
     Copy CRC 56C55E4F
     Accurately ripped (confidence 2)  [1E3AE868]
     Copy OK
Track  6
     Filename E:\temp\06 - Foutu.wav
     Pre-gap length  0:00:00.26
     Peak level 99.9 %
     Extraction speed 3.3 X
     Track quality 100.0 %
     Test CRC 202E1D07
     Copy CRC 202E1D07
     Accurately ripped (confidence 2)  [15FE65EC]
     Copy OK
Track  7
     Filename E:\temp\07 - Fais-moi une place.wav
     Pre-gap length  0:00:00.60
     Peak level 99.9 %
     Extraction speed 3.4 X
     Track quality 100.0 %
     Test CRC C3965B2D
     Copy CRC C3965B2D
     Accurately ripped (confidence 2)  [FB698F9D]
     Copy OK
Track  8
     Filename E:\temp\08 - Petits pois lardons.wav
     Peak level 99.9 %
     Extraction speed 3.7 X
     Track quality 100.0 %
     Test CRC F8EE344D
     Copy CRC F8EE344D
     Accurately ripped (confidence 2)  [3068FB20]
     Copy OK
Track  9
     Filename E:\temp\09 - Le chiendent.wav
     Peak level 99.6 %
     Extraction speed 3.8 X
     Track quality 100.0 %
     Test CRC 399DE42C
     Copy CRC 399DE42C
     Accurately ripped (confidence 2)  [63EFC5CE]
     Copy OK
Track 10
     Filename E:\temp\10 - Petit Joseph.wav
     Pre-gap length  0:00:01.36
     Peak level 99.9 %
     Extraction speed 4.0 X
     Track quality 100.0 %
     Test CRC 901DB19C
     Copy CRC 901DB19C
     Accurately ripped (confidence 2)  [C4D05545]
     Copy OK
Track 11
     Filename E:\temp\11 - NouveaubBig bang.wav
     Peak level 80.9 %
     Extraction speed 3.8 X
     Track quality 100.0 %
     Test CRC 0F4256C7
     Copy CRC 0F4256C7
     Accurately ripped (confidence 2)  [6F234A15]
     Copy OK
Track 12
     Filename E:\temp\12 - Le verrou (Reprise).wav
     Pre-gap length  0:00:00.26
     Peak level 54.4 %
     Extraction speed 3.1 X
     Track quality 100.0 %
     Test CRC 9AF72112
     Copy CRC 9AF72112
     Accurately ripped (confidence 2)  [52EF8C7F]
     Copy OK
All tracks accurately ripped
No errors occurred
End of status report
==== Log checksum DDD094F26F085790BA17DC0A162B643C14D2E9A38C3F7A95394C28A1FC76A495 ====
Код:
REM GENRE Chanson
REM DATE 1990
REM DISCID A009A40C
REM COMMENT "ExactAudioCopy v1.0b1"
PERFORMER "Julien Clerc"
TITLE "Fais-Moi Une Place"
FILE "01 - Le verrou.wav" WAVE
  TRACK 01 AUDIO
    TITLE "Le verrou"
    PERFORMER "Julien Clerc"
    PREGAP 00:00:32
    INDEX 01 00:00:00
FILE "02 - Echafaudages.wav" WAVE
  TRACK 02 AUDIO
    TITLE "Echafaudages"
    PERFORMER "Julien Clerc"
    INDEX 01 00:00:00
FILE "03 - Avisos.wav" WAVE
  TRACK 03 AUDIO
    TITLE "Avisos"
    PERFORMER "Julien Clerc"
    INDEX 01 00:00:00
  TRACK 04 AUDIO
    TITLE "Gare a la casse"
    PERFORMER "Julien Clerc"
    INDEX 00 03:10:28
FILE "04 - Gare a la casse.wav" WAVE
    INDEX 01 00:00:00
  TRACK 05 AUDIO
    TITLE "Fille du feu"
    PERFORMER "Julien Clerc"
    INDEX 00 03:52:28
FILE "05 - Fille du feu.wav" WAVE
    INDEX 01 00:00:00
  TRACK 06 AUDIO
    TITLE "Foutu"
    PERFORMER "Julien Clerc"
    INDEX 00 04:16:53
FILE "06 - Foutu.wav" WAVE
    INDEX 01 00:00:00
  TRACK 07 AUDIO
    TITLE "Fais-moi une place"
    PERFORMER "Julien Clerc"
    INDEX 00 04:03:05
FILE "07 - Fais-moi une place.wav" WAVE
    INDEX 01 00:00:00
FILE "08 - Petits pois lardons.wav" WAVE
  TRACK 08 AUDIO
    TITLE "Petits pois lardons"
    PERFORMER "Julien Clerc"
    INDEX 01 00:00:00
FILE "09 - Le chiendent.wav" WAVE
  TRACK 09 AUDIO
    TITLE "Le chiendent"
    PERFORMER "Julien Clerc"
    INDEX 01 00:00:00
  TRACK 10 AUDIO
    TITLE "Petit Joseph"
    PERFORMER "Julien Clerc"
    INDEX 00 03:39:20
FILE "10 - Petit Joseph.wav" WAVE
    INDEX 01 00:00:00
FILE "11 - NouveaubBig bang.wav" WAVE
  TRACK 11 AUDIO
    TITLE "NouveaubBig bang"
    PERFORMER "Julien Clerc"
    INDEX 01 00:00:00
  TRACK 12 AUDIO
    TITLE "Le verrou (Reprise)"
    PERFORMER "Julien Clerc"
    INDEX 00 02:40:63
FILE "12 - Le verrou (Reprise).wav" WAVE
    INDEX 01 00:00:00
Правила, инструкции, FAQ!!!
Торрент  Добавлен [01 янв 2020, 22:50] Скачать торрент Магнет ссылка
Скачать торрент
[ Размер 20.91 КБ / Просмотров 4 ]

Статус
Проверен 
 
Размер  250.08 МБ
Приватный: Нет (DHT включён)
.torrent скачан  0
 


     Отправить личное сообщение
   
Страница 1 из 1
Показать сообщения за:  Поле сортировки  
Начать новую тему Ответить на тему


Сейчас этот форум просматривают: нет зарегистрированных пользователей и гости: 0


Вы не можете начинать темы
Вы не можете отвечать на сообщения
Вы не можете редактировать свои сообщения
Вы не можете удалять свои сообщения
Вы не можете добавлять вложения

Перейти:  
cron