Начать новую тему Ответить на тему
Статистика раздачи
Размер: 323.46 МБ | Добавлен: 01 янв 2020, 22:50 | Скачали: 0
Сидеров: 0  [0 байт/сек]    Личеров: 0  [0 байт/сек]
Пред. тема | След. тема 

Автор
Сообщение

СообщениеДобавлено: 01 янв 2020, 22:50 

Ответить с цитатой 

Charles Aznavour - Aznavour 2000
Жанр: Chanson / Jazz
Год выпуска диска: 2000
Производитель диска: EMI MUSIC FRANCE
Аудио кодек: APE
Тип рипа: image+.cue
Битрейт аудио: lossless
Продолжительность: 53:07
Трэклист:
1. Le Jazz Est Revenu
2. Qu'Avons-Nous Fait De Nos Vingt Ans
3. Dans Tes Bras
4. Elle A Le Swing Au Corps
5. Quand Tu M'Aimes - (from "Lautrec")
6. Je Ne Savais Pas - (from "Lautrec")
7. J'ai Peur
8. Habillez-Vous
9. On M'a Donne
10. La Formule Un
11. Apres L'Amour
12. De La Scene A La Seine
13. Nos Avocats
14. Je Danse Avec L'Amour
Доп. информация:
Exact Audio Copy V0.99 prebeta 4 from 23. January 2008
EAC extraction logfile from 7. January 2009, 4:01
Charles Aznavour / Aznavour 2000
Used drive : BENQ DVD DC DW1800 Adapter: 1 ID: 0
Read mode : Secure
Utilize accurate stream : Yes
Defeat audio cache : Yes
Make use of C2 pointers : No
Read offset correction : 6
Overread into Lead-In and Lead-Out : No
Fill up missing offset samples with silence : Yes
Delete leading and trailing silent blocks : No
Null samples used in CRC calculations : Yes
Used interface : Native Win32 interface for Win NT & 2000
Used output format : Internal WAV Routines
Sample format : 44.100 Hz; 16 Bit; Stereo
TOC of the extracted CD
Track | Start | Length | Start sector | End sector
---------------------------------------------------------
1 | 0:00.00 | 3:39.29 | 0 | 16453
2 | 3:39.29 | 4:24.60 | 16454 | 36313
3 | 8:04.14 | 3:07.36 | 36314 | 50374
4 | 11:11.50 | 4:19.15 | 50375 | 69814
5 | 15:30.65 | 3:30.06 | 69815 | 85570
6 | 19:00.71 | 4:30.12 | 85571 | 105832
7 | 23:31.08 | 2:38.46 | 105833 | 117728
8 | 26:09.54 | 3:56.50 | 117729 | 135478
9 | 30:06.29 | 4:08.65 | 135479 | 154143
10 | 34:15.19 | 4:37.09 | 154144 | 174927
11 | 38:52.28 | 3:13.59 | 174928 | 189461
12 | 42:06.12 | 3:45.61 | 189462 | 206397
13 | 45:51.73 | 4:26.50 | 206398 | 226397
14 | 50:18.48 | 2:49.23 | 226398 | 239095
Range status and errors
Selected range
Filename D:\Charles Aznavour - Aznavour 2000\Charles Aznavour - Aznavour 2000.wav
Peak level 100.0 %
Range quality 100.0 %
Copy CRC C6452935
Copy OK
No errors occurred
End of status report
Правила, инструкции, FAQ!!!
Торрент  Добавлен [01 янв 2020, 22:50] Скачать торрент Магнет ссылка
Скачать торрент
[ Размер 13.3 КБ / Просмотров 2 ]

Статус
Проверен 
 
Размер  323.46 МБ
Приватный: Нет (DHT включён)
.torrent скачан  0
 


     Отправить личное сообщение
   
Страница 1 из 1
Показать сообщения за:  Поле сортировки  
Начать новую тему Ответить на тему


Сейчас этот форум просматривают: нет зарегистрированных пользователей и гости: 0


Вы не можете начинать темы
Вы не можете отвечать на сообщения
Вы не можете редактировать свои сообщения
Вы не можете удалять свои сообщения
Вы не можете добавлять вложения

Перейти:  
cron