Начать новую тему Ответить на тему
Статистика раздачи
Размер: 224.65 МБ | Добавлен: 01 янв 2020, 22:42 | Скачали: 0
Сидеров: 0  [0 байт/сек]    Личеров: 0  [0 байт/сек]
Пред. тема | След. тема 

Автор
Сообщение

СообщениеДобавлено: 01 янв 2020, 22:42 

Ответить с цитатой 

Geneviève Morissette - Me v'là
Жанр: Chanson française, female vocalists
Носитель: WEB
Год издания: 2015
Издатель (лейбл): Musicor licence Balandras éditions
Страна исполнителя (группы): FR
Аудиокодек: FLAC (*.flac)
Тип рипа: tracks
Битрейт аудио: lossless
Продолжительность: 00:39:08
Источник (релизер): IsraBox
Наличие сканов в содержимом раздачи: нет


01. Me v'là (3:38)
02. M'acheter un jet (3:00)
03. Exploser (4:23)
04. La femme en beige (4:48)
05. Comme dans un film (3:32)
06. Tombé sul'cœur (4:18)
07. Gueuler ma vie (4:31)
08. Ça veut pu (3:30)
09. Pour moi la France (4:08)
10. Gueuler ma vie (Edit) (3:25)
Код:
-----------------------
DON'T MODIFY THIS FILE
-----------------------
PERFORMER: auCDtect Task Manager, ver. 1.5.1RC6 build 1.5.1.7
Copyright (c) 2008-2010 y-soft. All rights reserved
[url=http://y-soft.org]http://y-soft.org[/url]
ANALYZER: auCDtect: CD records authenticity detector, version 0.8.2
Copyright (c) 2004 Oleg Berngardt. All rights reserved.
Copyright (c) 2004 Alexander Djourik. All rights reserved.
FILE: 01 Me v'Ia.flac
  Size: 20111854 Hash: 054DCB33563662F422A932201C93EDAC Accuracy: -m8
  Conclusion: CDDA 100%
  Signature: ADCD8E5CBA8C428C03F0A821C425B3595BD3C5BF
FILE: 02 M'acheter un jet.flac
  Size: 21429652 Hash: 7DF5DFB55593AB6E5CFCEE96CEC395C4 Accuracy: -m8
  Conclusion: CDDA 100%
  Signature: 9DFA632247CECB50F5E38783480CAE32F2626943
FILE: 03 Exploser.flac
  Size: 29451041 Hash: B1A1DE2D358ACD210B68E86941814A6C Accuracy: -m8
  Conclusion: CDDA 100%
  Signature: 60D458123DDF8F5A15C7F8955BC4BB7FC0A48041
FILE: 04 La femme en beige.flac
  Size: 25832134 Hash: E72825965C30DD7A1E1503D0B6833904 Accuracy: -m8
  Conclusion: CDDA 100%
  Signature: 6DC80A8AAF60C52E224EA9A6FFEBD50F3F525B09
FILE: 05 Comme dans un film.flac
  Size: 20188416 Hash: 75F98BBC9B3170C371B6A1BF55FCB6E8 Accuracy: -m8
  Conclusion: CDDA 100%
  Signature: 7C426841DFF2AB903AC5A4A1073A55598C7C8C7C
FILE: 06 Tombe sul'cceur.flac
  Size: 23665208 Hash: 2E874D9E91743FFD14A3E8F8A1C43F4B Accuracy: -m8
  Conclusion: CDDA 100%
  Signature: 49D2CCC97EAA3FEBE8909F80EBB2667015CF7F08
FILE: 07 Gueuler ma vie.flac
  Size: 31649657 Hash: 5DFDD7AB34003FFA45995E0D6ED22347 Accuracy: -m8
  Conclusion: CDDA 100%
  Signature: 05AD37FAFD227ABEC0624146649E3D4D247CE30C
FILE: 08 Ca veut pu.flac
  Size: 17884847 Hash: 83CCF4B22834FCC0FA36AFBA1BB50A12 Accuracy: -m8
  Conclusion: CDDA 100%
  Signature: A0DDE1659F143FDB32FB4C8172199DB9F7B2FA91
FILE: 09 Pour moi la France.flac
  Size: 23198100 Hash: 40CEAF0550CA1268C27F315567595678 Accuracy: -m8
  Conclusion: CDDA 100%
  Signature: F20D24BD2ABEC41840F16F16E65C6BA4B37C37AF
FILE: 10 Gueuler ma vie (Edit).flac
  Size: 22108882 Hash: A63C0E0C74B509E64533C9AD4D37A362 Accuracy: -m8
  Conclusion: CDDA 100%
  Signature: 50E4573BB7AD1FB32E089A229BDD04E9CA6440CA
Код:
foobar2000 1.2.8 / Dynamic Range Meter 1.1.1
log date: 2015-08-30 19:34:49
--------------------------------------------------------------------------------
Analyzed: Geneviève Morissette / Me v'là
--------------------------------------------------------------------------------
DR         Peak         RMS     Duration Track
--------------------------------------------------------------------------------
DR10      -1.32 dB   -15.63 dB      3:38 01-Me v'là
DR10      -0.10 dB   -11.19 dB      3:00 02-M'acheter un jet
DR10      -0.10 dB   -12.06 dB      4:23 03-Exploser
DR11      -0.70 dB   -16.21 dB      4:48 04-La femme en beige
DR11      -1.76 dB   -16.79 dB      3:32 05-Comme dans un film
DR12      -0.43 dB   -16.08 dB      4:18 06-Tombé sul'cœur
DR10      -0.10 dB   -12.65 dB      4:31 07-Gueuler ma vie
DR12      -1.79 dB   -17.87 dB      3:30 08-Ca veut pu
DR11      -1.26 dB   -15.36 dB      4:08 09-Pour moi la France
DR10      -0.10 dB   -13.13 dB      3:25 10-Gueuler ma vie (Edit)
--------------------------------------------------------------------------------
Number of tracks:  10
Official DR value: DR11
Samplerate:        44100 Hz
Channels:          2
Bits per sample:   16
Bitrate:           863 kbps
Codec:             FLAC
================================================================================

http://www.genevievemorissette.com/
http://www.youtube.com/user/genevievemorissette
Правила, инструкции, FAQ!!!
Торрент  Добавлен [01 янв 2020, 22:42] Скачать торрент Магнет ссылка
Скачать торрент
[ Размер 5.52 КБ / Просмотров 1 ]

Статус
Проверен 
 
Размер  224.65 МБ
Приватный: Нет (DHT включён)
.torrent скачан  0
 


     Отправить личное сообщение
   
Страница 1 из 1
Показать сообщения за:  Поле сортировки  
Начать новую тему Ответить на тему


Сейчас этот форум просматривают: нет зарегистрированных пользователей и гости: 0


Вы не можете начинать темы
Вы не можете отвечать на сообщения
Вы не можете редактировать свои сообщения
Вы не можете удалять свои сообщения
Вы не можете добавлять вложения

Перейти:  
cron