Начать новую тему Ответить на тему
Статистика раздачи
Размер: 284.16 МБ | Добавлен: 01 янв 2020, 23:10 | Скачали: 0
Сидеров: 1  [0 байт/сек]    Личеров: 0  [0 байт/сек]
Пред. тема | След. тема 

Автор
Сообщение

СообщениеДобавлено: 01 янв 2020, 23:10 

Ответить с цитатой 

Sacha Distel & Ray Ventura: Qu'Est ce qu'on attend pour etre heureux ? (1993)
Жанр: Chanson, French Pop
Страна-производитель диска: Germany
Год издания: 1993
Издатель (лейбл): Carrere
Номер по каталогу: 4509-92649-2
Аудиокодек: FLAC (*.flac)
Тип рипа: tracks+.cue
Битрейт аудио: lossless
Продолжительность: 00:46:24
Источник (релизер): рип мой. CD тоже.
Наличие сканов в содержимом раздачи: нет
Треклист:
01. Qu'est ce qu'on attend pour etre heureux ? (3:15)
02. Tiens, Tiens, Tiens (2:43)
03. Comme tout le monde (2:43)
04. Ca vaut mieux que d'attrapper la scarlatine (3:26)
05. Sur deux notes (3:43)
06. A la mi aout (2:39)
07. Tant je suis amoureux de vous (2:40)
08. Tout va tres bien Madame la Marquise (3:24)
09. Je voudrais en savoir davantage (2:54)
10. Maria de Bahia (3:22)
11. Insensiblement (2:50)
12. Les chemises de l'archiduchesse (2:46)
13. On n'entents plus que ca (hey-ba-ba-re-bop) (2:59)
14. Le nez de Cleopatre (3:09)
15. Fantastique (2:51)
Код:
Exact Audio Copy V1.0 beta 1 from 15. November 2010
EAC extraction logfile from 5. June 2012, 21:35
Sacha Distel & Ray Ventura / Qu'est ce qu'on attend pour etre heureux
Used drive  : Optiarc DVD RW AD-7200A   Adapter: 0  ID: 0
Read mode               : Secure
Utilize accurate stream : Yes
Defeat audio cache      : Yes
Make use of C2 pointers : No
Read offset correction                      : 48
Overread into Lead-In and Lead-Out          : No
Fill up missing offset samples with silence : Yes
Delete leading and trailing silent blocks   : No
Null samples used in CRC calculations       : Yes
Used interface                              : Native Win32 interface for Win NT & 2000
Gap handling                                : Appended to previous track
Used output format              : User Defined Encoder
Selected bitrate                : 768 kBit/s
Quality                         : High
Add ID3 tag                     : No
Command line compressor         : C:\Program Files\Exact Audio Copy\Flac\flac.exe
Additional command line options : -8 -V -T "ARTIST=%a" -T "TITLE=%t" -T "ALBUM=%g" -T "DATE=%y" -T "TRACKNUMBER=%n" -T "TOTALTRACKS=%x" -T "GENRE=%m" -T "ALBUMARTIST=%v" -T "ALBUM ARTIST=%v" -T "COMMENT=EAC Secure Mode, Test & Copy, AccurateRip, FLAC -8" %s
TOC of the extracted CD
     Track |   Start  |  Length  | Start sector | End sector
    ---------------------------------------------------------
        1  |  0:00.00 |  3:15.15 |         0    |    14639
        2  |  3:15.15 |  2:43.02 |     14640    |    26866
        3  |  5:58.17 |  2:42.43 |     26867    |    39059
        4  |  8:40.60 |  3:25.70 |     39060    |    54504
        5  | 12:06.55 |  3:42.55 |     54505    |    71209
        6  | 15:49.35 |  2:39.15 |     71210    |    83149
        7  | 18:28.50 |  2:39.45 |     83150    |    95119
        8  | 21:08.20 |  3:23.55 |     95120    |   110399
        9  | 24:32.00 |  2:54.35 |    110400    |   123484
       10  | 27:26.35 |  3:21.57 |    123485    |   138616
       11  | 30:48.17 |  2:49.58 |    138617    |   151349
       12  | 33:38.00 |  2:46.22 |    151350    |   163821
       13  | 36:24.22 |  2:59.25 |    163822    |   177271
       14  | 39:23.47 |  3:09.03 |    177272    |   191449
       15  | 42:32.50 |  2:51.12 |    191450    |   204286
Track  1
     Filename E:\Sacha Distel & Ray Ventura - Qu'est ce qu'on attend pour etre heureux (1993) [FLAC] {Carrere, 4509-92649-2, Germany, 1993}\01 - Qu'est ce qu'on attend pour etre heureux.wav
     Pre-gap length  0:00:02.00
     Peak level 100.0 %
     Extraction speed 2.2 X
     Track quality 100.0 %
     Test CRC 436990A6
     Copy CRC 436990A6
     Track not present in AccurateRip database
     Copy OK
Track  2
     Filename E:\Sacha Distel & Ray Ventura - Qu'est ce qu'on attend pour etre heureux (1993) [FLAC] {Carrere, 4509-92649-2, Germany, 1993}\02 - Tiens, Tiens, Tiens.wav
     Pre-gap length  0:00:03.06
     Peak level 100.0 %
     Extraction speed 1.9 X
     Track quality 99.9 %
     Test CRC 835CC857
     Copy CRC 835CC857
     Track not present in AccurateRip database
     Copy OK
Track  3
     Filename E:\Sacha Distel & Ray Ventura - Qu'est ce qu'on attend pour etre heureux (1993) [FLAC] {Carrere, 4509-92649-2, Germany, 1993}\03 - Comme tout le monde.wav
     Pre-gap length  0:00:02.89
     Peak level 99.2 %
     Extraction speed 2.4 X
     Track quality 100.0 %
     Test CRC EC973C29
     Copy CRC EC973C29
     Track not present in AccurateRip database
     Copy OK
Track  4
     Filename E:\Sacha Distel & Ray Ventura - Qu'est ce qu'on attend pour etre heureux (1993) [FLAC] {Carrere, 4509-92649-2, Germany, 1993}\04 - Ca vaut mieux que d'attrapper la scarlatine.wav
     Pre-gap length  0:00:02.30
     Peak level 99.3 %
     Extraction speed 2.7 X
     Track quality 100.0 %
     Test CRC D70FA59D
     Copy CRC D70FA59D
     Track not present in AccurateRip database
     Copy OK
Track  5
     Filename E:\Sacha Distel & Ray Ventura - Qu'est ce qu'on attend pour etre heureux (1993) [FLAC] {Carrere, 4509-92649-2, Germany, 1993}\05 - Sur deux notes.wav
     Pre-gap length  0:00:03.33
     Peak level 99.2 %
     Extraction speed 2.9 X
     Track quality 100.0 %
     Test CRC B6B40393
     Copy CRC B6B40393
     Track not present in AccurateRip database
     Copy OK
Track  6
     Filename E:\Sacha Distel & Ray Ventura - Qu'est ce qu'on attend pour etre heureux (1993) [FLAC] {Carrere, 4509-92649-2, Germany, 1993}\06 - A la mi aout.wav
     Pre-gap length  0:00:02.73
     Peak level 99.8 %
     Extraction speed 2.9 X
     Track quality 100.0 %
     Test CRC A0B1F31C
     Copy CRC A0B1F31C
     Track not present in AccurateRip database
     Copy OK
Track  7
     Filename E:\Sacha Distel & Ray Ventura - Qu'est ce qu'on attend pour etre heureux (1993) [FLAC] {Carrere, 4509-92649-2, Germany, 1993}\07 - Tant je suis amoureux de vous.wav
     Pre-gap length  0:00:02.46
     Peak level 99.7 %
     Extraction speed 3.0 X
     Track quality 100.0 %
     Test CRC AB390861
     Copy CRC AB390861
     Track not present in AccurateRip database
     Copy OK
Track  8
     Filename E:\Sacha Distel & Ray Ventura - Qu'est ce qu'on attend pour etre heureux (1993) [FLAC] {Carrere, 4509-92649-2, Germany, 1993}\08 - Tout va tres bien Madame la Marquise.wav
     Pre-gap length  0:00:02.77
     Peak level 99.4 %
     Extraction speed 3.3 X
     Track quality 100.0 %
     Test CRC 42F53E1A
     Copy CRC 42F53E1A
     Track not present in AccurateRip database
     Copy OK
Track  9
     Filename E:\Sacha Distel & Ray Ventura - Qu'est ce qu'on attend pour etre heureux (1993) [FLAC] {Carrere, 4509-92649-2, Germany, 1993}\09 - Je voudrais en savoir davantage.wav
     Pre-gap length  0:00:03.06
     Peak level 100.0 %
     Extraction speed 3.4 X
     Track quality 100.0 %
     Test CRC 2B9E5D84
     Copy CRC 2B9E5D84
     Track not present in AccurateRip database
     Copy OK
Track 10
     Filename E:\Sacha Distel & Ray Ventura - Qu'est ce qu'on attend pour etre heureux (1993) [FLAC] {Carrere, 4509-92649-2, Germany, 1993}\10 - Maria de Bahia.wav
     Pre-gap length  0:00:02.46
     Peak level 98.4 %
     Extraction speed 3.6 X
     Track quality 100.0 %
     Test CRC 375BBDF4
     Copy CRC 375BBDF4
     Track not present in AccurateRip database
     Copy OK
Track 11
     Filename E:\Sacha Distel & Ray Ventura - Qu'est ce qu'on attend pour etre heureux (1993) [FLAC] {Carrere, 4509-92649-2, Germany, 1993}\11 - Insensiblement.wav
     Pre-gap length  0:00:02.76
     Peak level 99.4 %
     Extraction speed 3.6 X
     Track quality 100.0 %
     Test CRC 53BCD2AF
     Copy CRC 53BCD2AF
     Track not present in AccurateRip database
     Copy OK
Track 12
     Filename E:\Sacha Distel & Ray Ventura - Qu'est ce qu'on attend pour etre heureux (1993) [FLAC] {Carrere, 4509-92649-2, Germany, 1993}\12 - Les chemises de l'archiduchesse.wav
     Pre-gap length  0:00:02.73
     Peak level 91.7 %
     Extraction speed 3.6 X
     Track quality 100.0 %
     Test CRC 69E447C8
     Copy CRC 69E447C8
     Track not present in AccurateRip database
     Copy OK
Track 13
     Filename E:\Sacha Distel & Ray Ventura - Qu'est ce qu'on attend pour etre heureux (1993) [FLAC] {Carrere, 4509-92649-2, Germany, 1993}\13 - On n'entents plus que ca (hey-ba-ba-re-bop).wav
     Pre-gap length  0:00:02.29
     Peak level 94.5 %
     Extraction speed 3.2 X
     Track quality 99.9 %
     Test CRC 8610D700
     Copy CRC 8610D700
     Track not present in AccurateRip database
     Copy OK
Track 14
     Filename E:\Sacha Distel & Ray Ventura - Qu'est ce qu'on attend pour etre heureux (1993) [FLAC] {Carrere, 4509-92649-2, Germany, 1993}\14 - Le nez de Cleopatre.wav
     Pre-gap length  0:00:02.76
     Peak level 93.1 %
     Extraction speed 4.0 X
     Track quality 100.0 %
     Test CRC 35D4152E
     Copy CRC 35D4152E
     Track not present in AccurateRip database
     Copy OK
Track 15
     Filename E:\Sacha Distel & Ray Ventura - Qu'est ce qu'on attend pour etre heureux (1993) [FLAC] {Carrere, 4509-92649-2, Germany, 1993}\15 - Fantastique.wav
     Pre-gap length  0:00:03.26
     Peak level 94.9 %
     Extraction speed 4.0 X
     Track quality 100.0 %
     Test CRC 6AA9E1A9
     Copy CRC 6AA9E1A9
     Track not present in AccurateRip database
     Copy OK
None of the tracks are present in the AccurateRip database
No errors occurred
End of status report
==== Log checksum 2B5D8534FD1025A7C52F0AE973043D25D88D3524F4AD1704B7C231AB37D1F89B ====
Код:
REM GENRE Other
REM DATE 1993
REM DISCID B80AA30F
REM COMMENT "ExactAudioCopy v1.0b1"
PERFORMER "Sacha Distel & Ray Ventura"
TITLE "Qu'est ce qu'on attend pour etre heureux"
FILE "01 - Qu'est ce qu'on attend pour etre heureux.wav" WAVE
  TRACK 01 AUDIO
    TITLE "Qu'est ce qu'on attend pour etre heureux"
    PERFORMER "Sacha Distel & Ray Ventura"
    INDEX 01 00:00:00
  TRACK 02 AUDIO
    TITLE "Tiens, Tiens, Tiens"
    PERFORMER "Sacha Distel & Ray Ventura"
    INDEX 00 03:12:10
FILE "02 - Tiens, Tiens, Tiens.wav" WAVE
    INDEX 01 00:00:00
  TRACK 03 AUDIO
    TITLE "Comme tout le monde"
    PERFORMER "Sacha Distel & Ray Ventura"
    INDEX 00 02:40:10
FILE "03 - Comme tout le monde.wav" WAVE
    INDEX 01 00:00:00
  TRACK 04 AUDIO
    TITLE "Ca vaut mieux que d'attrapper la scarlatine"
    PERFORMER "Sacha Distel & Ray Ventura"
    INDEX 00 02:40:20
FILE "04 - Ca vaut mieux que d'attrapper la scarlatine.wav" WAVE
    INDEX 01 00:00:00
  TRACK 05 AUDIO
    TITLE "Sur deux notes"
    PERFORMER "Sacha Distel & Ray Ventura"
    INDEX 00 03:22:45
FILE "05 - Sur deux notes.wav" WAVE
    INDEX 01 00:00:00
  TRACK 06 AUDIO
    TITLE "A la mi aout"
    PERFORMER "Sacha Distel & Ray Ventura"
    INDEX 00 03:40:00
FILE "06 - A la mi aout.wav" WAVE
    INDEX 01 00:00:00
  TRACK 07 AUDIO
    TITLE "Tant je suis amoureux de vous"
    PERFORMER "Sacha Distel & Ray Ventura"
    INDEX 00 02:36:55
FILE "07 - Tant je suis amoureux de vous.wav" WAVE
    INDEX 01 00:00:00
  TRACK 08 AUDIO
    TITLE "Tout va tres bien Madame la Marquise"
    PERFORMER "Sacha Distel & Ray Ventura"
    INDEX 00 02:36:62
FILE "08 - Tout va tres bien Madame la Marquise.wav" WAVE
    INDEX 01 00:00:00
  TRACK 09 AUDIO
    TITLE "Je voudrais en savoir davantage"
    PERFORMER "Sacha Distel & Ray Ventura"
    INDEX 00 03:20:50
FILE "09 - Je voudrais en savoir davantage.wav" WAVE
    INDEX 01 00:00:00
  TRACK 10 AUDIO
    TITLE "Maria de Bahia"
    PERFORMER "Sacha Distel & Ray Ventura"
    INDEX 00 02:52:00
FILE "10 - Maria de Bahia.wav" WAVE
    INDEX 01 00:00:00
  TRACK 11 AUDIO
    TITLE "Insensiblement"
    PERFORMER "Sacha Distel & Ray Ventura"
    INDEX 00 03:19:00
FILE "11 - Insensiblement.wav" WAVE
    INDEX 01 00:00:00
  TRACK 12 AUDIO
    TITLE "Les chemises de l'archiduchesse"
    PERFORMER "Sacha Distel & Ray Ventura"
    INDEX 00 02:47:03
FILE "12 - Les chemises de l'archiduchesse.wav" WAVE
    INDEX 01 00:00:00
  TRACK 13 AUDIO
    TITLE "On n'entents plus que ca (hey-ba-ba-re-bop)"
    PERFORMER "Sacha Distel & Ray Ventura"
    INDEX 00 02:44:00
FILE "13 - On n'entents plus que ca (hey-ba-ba-re-bop).wav" WAVE
    INDEX 01 00:00:00
  TRACK 14 AUDIO
    TITLE "Le nez de Cleopatre"
    PERFORMER "Sacha Distel & Ray Ventura"
    INDEX 00 02:56:43
FILE "14 - Le nez de Cleopatre.wav" WAVE
    INDEX 01 00:00:00
  TRACK 15 AUDIO
    TITLE "Fantastique"
    PERFORMER "Sacha Distel & Ray Ventura"
    INDEX 00 03:05:58
FILE "15 - Fantastique.wav" WAVE
    INDEX 01 00:00:00
Né le 29 janvier 1933 à Paris, Sacha Alexandre Distel est le fils d'un ingénieur et d'une pianiste, ancienne lauréate du Conservatoire. C'est grâce à sa mère et, surtout, son oncle maternel, que Sacha découvre le monde du spectacle : le frère de Madame Distel n'est autre que Ray Ventura, dont la troupe des Collégiens a fait la gloire du music-hall français. Ray Ventura a pour son neveu une affection toute paternelle et l'emmène dès qu'il peut au spectacle. Petit, Sacha Distel hante les coulisses des salles de spectacle et assiste avec délectation aux répétitions des Collégiens. La Seconde Guerre Mondiale donne un coup d'arrêt brutal à cette enfance de groupie musical : Ray Ventura, qui est juif, se réfugie en Amérique du Sud tandis que sa sœur, mère de Sacha, est arrêtée en 1942 par les Allemands. Durant deux ans, Sacha Distel est séparé de sa mère, qu'il retrouve heureusement à la Libération.
Les Collégiens
Après 1945, la France connaît un intense renouveau musical, swing et jazz tenant le haut du pavé. Sacha profite à plein de ce printemps jazzy ; il donne par ailleurs désormais un coup de main à son oncle, qui lui confie une tâche bien précise : aller réveiller l'un de ses musiciens, régulièrement assommé par ses nuits de fêtard, et le conduire au studio où l'orchestre de Ventura tourne un film. Durant un mois, le lycéen va réveiller un certain Henri Salvador, qui habite dans la même rue que lui, et l'accompagne au studio sur le siège arrière de sa motocyclette. Intrigué par la guitare d'Henri Salvador, Sacha Distel lui demande de lui apprendre des accords. Conquis, l'adolescent continue de pratiquer la musique, en s'orientant plus particulièrement vers le jazz, après la révélation, en 1948, du premier concert de Dizzy Gillespie à Paris ; la mode jazzy bat son plein dans le Paris de l'après-guerre et Sacha Distel, jouant dans un orchestre de son lycée, devient rapidement un guitariste de jazz accompli.
En 1951, il est sacré meilleur guitariste amateur. Il joue ensuite dans l'orchestre d'Hubert Damisch, s'orientant vers une carrière de professionnel. En 1952, Ray Ventura l'aide à décrocher un stage dans l'édition musicale à New York, ce qui lui permet entre autres de fréquenter les clubs de jazz de la Grosse Pomme, ainsi que de rencontrer des vedettes du jazz comme Stan Getz et Jimmy Raney, qui lui prodiguent des encouragements. Le jeune homme découvre également le répertoire des chanteurs de charme américains, comme Frank Sinatra, Nat King Cole et Tony Bennett : déjà musicien de grand talent, il se met à rêver en outre d'un destin de chanteur.
Paris Jazz Pulsations
Revenu à Paris, Sacha Distel mène une double carrière d'éditeur musical (chez DMF, où il édite notamment Georges Brassens) et de guitariste de jazz, enchaînant les bœufs dans les clubs parisiens. Sacha Distel se produit également comme accompagnateur de Juliette Gréco. Il multiplie les concerts avec les musiciens américains de passage, pour qui il est désormais un confrère reconnu. Au milieu des années 1950, Sacha Distel est devenu incontournable dans le milieu jazz français : il enregistre avec Lionel Hampton l'album French New Sound et participe au disque Afternoon in Paris de John Lewis et son Modern Jazz Quartet. Il participe au quintette Bobby Jaspar All Stars, qui devient le principal orchestre de jazz de Paris et passe à l'Olympia. Sa carrière brièvement interrompue par un séjour sous les drapeaux, Sacha Distel se produit à l'international, dans des clubs en Allemagne ou aux Etats-Unis. En 1956, il se voit décerner par les lecteurs du magazine Jazz Hot le titre de meilleur guitariste de jazz français, titre qu'il conserve sept ans de suite. À la fin de la décennie, il connaît une liaison avec Brigitte Bardot, ce qui lui vaut l'attention des gazettes de stars et un important surcroît de notoriété.
Scoubidous, ha !
Mais Sacha Distel souhaite passer à la vitesse supérieure, le jazz ne nourrissant pas toujours son homme. Il a découvert d'autres milieux sociaux et artistiques de celui des clubs de Saint-Germain-des-Prés. Toujours fan de Frank Sinatra et se souvenant du conseil de Louis Armstrong qui estimait que pour réussir dans le jazz, il fallait chanter, Sacha Distel voudrait passer à la chanson afin de se consacrer à plein temps à sa carrière musicale. Courant 1957, il enregistre un premier 45-tours « Tout bas (Speak Low) », suivi de l'album Sacha Distel Chante, qui ne remportent pas de succès. C'est en décembre 1958 que le déclic se produit : devant donner à Alger un concert avec son orchestre, Sacha Distel décide de boucher un trou dans le spectacle en interprétant une chanson, lointainement inspirée d'un titre de Nancy Holloway. C'est le triomphe du titre « Scoubidou (Pommes et poires) », aux forts accents jazzy, qui permet au public français de découvrir la chaude voix d'or de Sacha Distel, chanteur de charme non dépourvu d'humour. Le texte, qui raconte avec ironie l'histoire d'un garçon plaqué sans ménagement par une chipie, aurait été inspiré à Distel par sa rupture avec Brigitte Bardot. Le succès de la chanson, notamment auprès des jeunes, est tel qu'il donne son nom au fameux objet en plastique tressé fabriqué par les écoliers. Consécration internationale, le « French Frank Sinatra » est l'invité de l'émission de télévision présentée par Ed Sullivan aux Etats-Unis.
Désormais lancé comme chanteur, Sacha Distel enchaîne les disques, donnant dans la variété grand public et remportant de beaux succès commerciaux, comme « Oh ! quelle nuit » (1959) et « Mon Beau Chapeau » (1960). Séduisant et cinégénique, le crooner devient au début des années 1960 animateur de télévision, prenant les rênes de l'émission Guitares et copains, qui devient rapidement Sacha Show, produite par Maritie et Gilbert Carpentier et conçue comme une émission « à l'américaine », avec sketches et chansons. Parmi les participants réguliers à l'émission, on peut noter Jean-Pierre Cassel, Jean Yanne, Francis Blanche et Pétula Clark. Le show compte de nombreux duos inédits, écrits pour la plupart par Serge Gainsbourg. Chanteur vedette, Sacha Distel prend l'allure d'un Monsieur Loyal du show-biz, parrain et découvreur de talents (il fait notamment débuter Mireille Mathieu en 1965).
La belle vie
En 1964, il enregistre « La belle vie », qui devient l'un de ses principaux standards et est bientôt repris en anglais (sous le titre « The Good Life ») par Tony Bennett et, bonheur suprême, Frank Sinatra en personne. La mode yé-yé passée, Sacha Distel s'oriente de plus en plus vers un registre de crooner, mêlant le « rutilant » à l'anglo-saxonne à l'héritage d'artistes français comme Maurice Chevalier ou Jean Sablon. Il n'en oublie pas pour autant ses racines musicales et fait, dès que possible, travailler en studio ses copains jazzmen, dont certains sont restés assez nécessiteux. Ayant profité des leçons de Ray Ventura et Paul Misraki, il s'affirme également comme un auteur-compositeur de talent, écrivant à l'occasion la musique de quelques films. Presque incontournable dans le paysage audiovisuel français, Sacha Distel se livre à quelques prestations assez succulentes, comme un ineffable trio avec Serge Gainsbourg et Brigitte Bardot, sur l'air de « La bise aux hippies », lors du show du Réveillon 1967.
Sing English very well
Au tournant des années 1970, un nouvel horizon s'ouvre pour Sacha Distel : une chanson en anglais, « Raindrops Keep Fallin' On My Head » (existant en version française, sous le titre « Toute la pluie tombe sur moi ») est numéro un des ventes de disques en Grande-Bretagne pour l'année 1971. « Sacha Sunny Voice », comme le surnomment les Anglais, passe en vedette dans des salles comme le London Palladium et chante devant la Reine Elizabeth II. Son anglais parfait lui permet d'animer des émissions de télévision en Angleterre. Dans le même temps, sa carrière en France bat quelque peu de l'aile : l'arrêt en 1972 de l'émission Sacha Show lui fait perdre beaucoup de sa visibilité médiatique et son style de chanteur de charme excessivement lisse et rutilant a moins la faveur du public hexagonal. S'il signe encore des succès au hit-parade français (« Accroche un ruban » ou « Le Soleil de ma vie », adaptation de Stevie Wonder chantée en duo avec Brigitte Bardot en 1973), les années 1970 de Sacha Distel sont en grande partie anglo-saxonnes : outre la Grande-Bretagne, le « French Lover » se produit également aux Etats-Unis.
En 1983, Sacha Distel se rappelle au bon souvenir des Français avec l'album My Guitar And All That Jazz, où il rend notamment hommage à Django Reinhardt. Toujours séduisant à cinquante ans passés, Sacha Distel est également redécouvert par la télévision française, ce qui lui vaut d'animer l'émission La Belle Vie. Mais son come-back français est assombri par une pénible histoire : le 28 avril 1985, au retour du plateau de l'émission de télévision Champs-Elysées, sa voiture subit un grave accident. Si Sacha Distel s'en sort avec plus de peur que de mal, sa passagère, l'actrice Chantal Nobel, vedette du feuilleton à succès Châteauvallon, est très grièvement blessée et demeurera handicapée à vie. Des rumeurs graveleuses circulent assez rapidement sur les circonstances de l'accident ; le chanteur n'a de toute manière pas le beau rôle, se voyant accusé au minimum d'être un conducteur très imprudent. Il sera finalement condamné à une peine de prison avec sursis pour blessures involontaires.
Final en douceur
Sa carrière à nouveau ralentie par cet épisode dramatique, Sacha Distel revient en 1991 avec un album-anthologie de chansons d'amour, Dédicaces. Si sa santé commence à lui causer des soucis (il doit être traité pour un cancer de la peau) le chanteur se montre très actif, et réalise un vieux rêve en formant un orchestre en hommage à celui de Ray Ventura. « Sacha Distel et ses Collégiens » enregistrent les plus grands succès des collégiens d'antan - lesdits « Collégiens » étant des amis du chanteur, tels que Salvatore Adamo, Jean-Pierre Foucault, Sim, Michel Fugain, Henri Salvador ou Jean-Pierre Cassel. Ne tournant pas le dos aux scènes anglo-saxonnes, il remporte un triomphe à Londres en 2001, en interprétant le rôle principal masculin de la comédie musicale Chicago.
En 2003, Sacha Distel revient à nouveau, avec un double album, En Vers et Contre Vous (partie française) et But Beautiful (partie anglaise) : le premier CD est composé de reprises de grands standards du music-hall américain (dont un duo avec Liza Minnelli, « All The Way ») et le second est constitué de nouvelles chansons, qui lui valent la même année le Prix compositeur-interprète décerné par la SACEM. Ce sera le dernier sursaut de Sacha Distel : moins d'un an plus tard, le 22 juillet 2004, il meurt à l'âge de 71 ans dans les environs de Saint-Tropez. Trois mois plus tôt, il était remonté sur scène une dernière fois, pour un bœuf avec le jazzman manouche Bireli Lagrène. Les médias s'étendent alors sur la carrière paradoxale d'un jazzman très pointu et passionné, devenu ensuite crooner kitsch : sans doute était-ce là faire peu de cas de la richesse d'une carrière couvrant plusieurs décennies. Sacha Distel a vendu plus de dix millions de disques, collectionné les disques d'or, et conservé tout au long de sa carrière un sourire impeccablement professionnel : on pourra émettre tous les jugements sur ses changements de répertoire, mais pas lui nier d'avoir su garder la classe des grands du swing.
Правила, инструкции, FAQ!!!
Торрент  Добавлен [01 янв 2020, 23:10] Скачать торрент Магнет ссылка
Скачать торрент
[ Размер 12.94 КБ / Просмотров 6 ]

Статус
Проверен 
 
Размер  284.16 МБ
Приватный: Нет (DHT включён)
.torrent скачан  0
 


     Отправить личное сообщение
   
Страница 1 из 1
Показать сообщения за:  Поле сортировки  
Начать новую тему Ответить на тему


Сейчас этот форум просматривают: нет зарегистрированных пользователей и гости: 0


Вы не можете начинать темы
Вы не можете отвечать на сообщения
Вы не можете редактировать свои сообщения
Вы не можете удалять свои сообщения
Вы не можете добавлять вложения

Перейти:  
cron