Начать новую тему Ответить на тему
Статистика раздачи
Размер: 191.23 МБ | Добавлен: 01 янв 2020, 22:48 | Скачали: 0
Сидеров: 0  [0 байт/сек]    Личеров: 0  [0 байт/сек]
Пред. тема | След. тема 

Автор
Сообщение

СообщениеДобавлено: 01 янв 2020, 22:48 

Ответить с цитатой 

Philippe B (Philippe Bergeron) / La grande nuit vidéo
Жанр: Chanson, French Folk, Pop
Носитель: CD
Страна-производитель диска (релиза): Canada
Год издания: 2017
Издатель (лейбл): Bonsound Records
Номер по каталогу: BONALO55-CD
Страна исполнителя (группы): Канада (Квебек)
Аудиокодек: FLAC (*.flac)
Тип рипа: tracks+.cue
Битрейт аудио: lossless
Продолжительность: 00:40:58
Источник (релизер): ?
Наличие сканов в содержимом раздачи: нет
Треклист:
01. Explosion (02:30)
02. Sortie/Exit (03:36)
03. Autoportrait (sans lunettes) (03:48)
04. Debra Winger (03:27)
05. La saison de tous les dangers (03:49)
06. Rouge-gorge (03:24)
07. Je t'aime, je t'aime (02:52)
08. Interurbain (03:33)
09. Le monstre du lac Témiscamingue (01:27)
10. Ellipse (02:23)
11. Anywhere (02:42)
12. Les enchaînés (03:09)
13. La grande nuit vidéo (02:56)
14. Les disparus (01:22)
Код:
X Lossless Decoder version 20160920 (149.2)
XLD extraction logfile from 2017-06-17 13:39:14 +0200
Philippe B / La Grande Nuit Video
Used Drive : HL-DT-ST DVDRW  GX40N (revision RQ00) (not found in database)
Media type : Pressed CD
Ripper mode             : XLD Secure Ripper
Disable audio cache     : OK for the drive with a cache less than 1375KiB
Make use of C2 pointers : NO
Read offset correction  : 6
Max retry count         : 20
Gap status              : Analyzed, Appended (except HTOA)
TOC of the extracted CD
     Track |   Start  |  Length  | Start sector | End sector
    ---------------------------------------------------------
        1  | 00:00:00 | 02:30:11 |         0    |    11260
        2  | 02:30:11 | 03:36:59 |     11261    |    27519
        3  | 06:06:70 | 03:48:00 |     27520    |    44619
        4  | 09:54:70 | 03:27:07 |     44620    |    60151
        5  | 13:22:02 | 03:49:66 |     60152    |    77392
        6  | 17:11:68 | 03:24:53 |     77393    |    92745
        7  | 20:36:46 | 02:52:31 |     92746    |   105676
        8  | 23:29:02 | 03:33:39 |    105677    |   121690
        9  | 27:02:41 | 01:27:32 |    121691    |   128247
       10  | 28:29:73 | 02:23:72 |    128248    |   139044
       11  | 30:53:70 | 02:42:58 |    139045    |   151252
       12  | 33:36:53 | 03:09:10 |    151253    |   165437
       13  | 36:45:63 | 02:56:40 |    165438    |   178677
       14  | 39:42:28 | 01:22:07 |    178678    |   184834
AccurateRip Summary
    Disc not found in AccurateRip DB.
All Tracks
    Album gain               : -6.73 dB
    Peak                     : 0.973389
    Statistics
        Read error                           : 0
        Jitter error (maybe fixed)           : 0
        Retry sector count                   : 0
        Damaged sector count                 : 0
Track 01
    Filename : /Users/Bea/Downloads/Philippe B - La Grande Nuit Video (2017) [FLAC]/01 Explosion.flac
    Pre-gap length : 00:02:00
    Track gain               : -7.23 dB
    Peak                     : 0.940338
    CRC32 hash (test run)    : C5C9EA24
    CRC32 hash               : C5C9EA24
    CRC32 hash (skip zero)   : 23BB8034
    AccurateRip v1 signature : C25D393D
    AccurateRip v2 signature : 1550AA7D
        ->Track not present in AccurateRip database.
    Statistics
        Read error                           : 0
        Jitter error (maybe fixed)           : 0
        Retry sector count                   : 0
        Damaged sector count                 : 0
Track 02
    Filename : /Users/Bea/Downloads/Philippe B - La Grande Nuit Video (2017) [FLAC]/02 Sortie/Exit.flac
    Track gain               : -7.20 dB
    Peak                     : 0.941772
    CRC32 hash (test run)    : CC92F0E4
    CRC32 hash               : CC92F0E4
    CRC32 hash (skip zero)   : 7F0ECF64
    AccurateRip v1 signature : AC371229
    AccurateRip v2 signature : 67871555
        ->Track not present in AccurateRip database.
    Statistics
        Read error                           : 0
        Jitter error (maybe fixed)           : 0
        Retry sector count                   : 0
        Damaged sector count                 : 0
Track 03
    Filename : /Users/Bea/Downloads/Philippe B - La Grande Nuit Video (2017) [FLAC]/03 Autoportrait (Sans Lunettes).flac
    Track gain               : -5.51 dB
    Peak                     : 0.941925
    CRC32 hash (test run)    : 6FC1BAAF
    CRC32 hash               : 6FC1BAAF
    CRC32 hash (skip zero)   : 612A33EF
    AccurateRip v1 signature : 08334351
    AccurateRip v2 signature : 1690265F
        ->Track not present in AccurateRip database.
    Statistics
        Read error                           : 0
        Jitter error (maybe fixed)           : 0
        Retry sector count                   : 0
        Damaged sector count                 : 0
Track 04
    Filename : /Users/Bea/Downloads/Philippe B - La Grande Nuit Video (2017) [FLAC]/04 Debra Winger.flac
    Track gain               : -7.52 dB
    Peak                     : 0.940826
    CRC32 hash (test run)    : 9979B3F5
    CRC32 hash               : 9979B3F5
    CRC32 hash (skip zero)   : E5E397F7
    AccurateRip v1 signature : C1160DE2
    AccurateRip v2 signature : C378F9B8
        ->Track not present in AccurateRip database.
    Statistics
        Read error                           : 0
        Jitter error (maybe fixed)           : 0
        Retry sector count                   : 0
        Damaged sector count                 : 0
Track 05
    Filename : /Users/Bea/Downloads/Philippe B - La Grande Nuit Video (2017) [FLAC]/05 La Saison De Tous Les Dangers.flac
    Track gain               : -5.08 dB
    Peak                     : 0.940979
    CRC32 hash (test run)    : 067DCEC9
    CRC32 hash               : 067DCEC9
    CRC32 hash (skip zero)   : 61D3D357
    AccurateRip v1 signature : 768C2F7F
    AccurateRip v2 signature : 8F03C05D
        ->Track not present in AccurateRip database.
    Statistics
        Read error                           : 0
        Jitter error (maybe fixed)           : 0
        Retry sector count                   : 0
        Damaged sector count                 : 0
Track 06
    Filename : /Users/Bea/Downloads/Philippe B - La Grande Nuit Video (2017) [FLAC]/06 Rouge-Gorge.flac
    Track gain               : -7.54 dB
    Peak                     : 0.949646
    CRC32 hash (test run)    : AB7E3AF3
    CRC32 hash               : AB7E3AF3
    CRC32 hash (skip zero)   : 0755BDD6
    AccurateRip v1 signature : 7FDE980C
    AccurateRip v2 signature : 62BB3A45
        ->Track not present in AccurateRip database.
    Statistics
        Read error                           : 0
        Jitter error (maybe fixed)           : 0
        Retry sector count                   : 0
        Damaged sector count                 : 0
Track 07
    Filename : /Users/Bea/Downloads/Philippe B - La Grande Nuit Video (2017) [FLAC]/07 Je T'aime, Je T'aime.flac
    Track gain               : -6.54 dB
    Peak                     : 0.973389
    CRC32 hash (test run)    : BA82256B
    CRC32 hash               : BA82256B
    CRC32 hash (skip zero)   : 04E3C2BE
    AccurateRip v1 signature : 829781BE
    AccurateRip v2 signature : CD40861E
        ->Track not present in AccurateRip database.
    Statistics
        Read error                           : 0
        Jitter error (maybe fixed)           : 0
        Retry sector count                   : 0
        Damaged sector count                 : 0
Track 08
    Filename : /Users/Bea/Downloads/Philippe B - La Grande Nuit Video (2017) [FLAC]/08 Interurbain.flac
    Track gain               : -5.98 dB
    Peak                     : 0.944275
    CRC32 hash (test run)    : FB199232
    CRC32 hash               : FB199232
    CRC32 hash (skip zero)   : 9B731605
    AccurateRip v1 signature : 14C24C02
    AccurateRip v2 signature : 98878ECF
        ->Track not present in AccurateRip database.
    Statistics
        Read error                           : 0
        Jitter error (maybe fixed)           : 0
        Retry sector count                   : 0
        Damaged sector count                 : 0
Track 09
    Filename : /Users/Bea/Downloads/Philippe B - La Grande Nuit Video (2017) [FLAC]/09 Le Monstre Du Lac Temiscamingue.flac
    Track gain               : -7.90 dB
    Peak                     : 0.940216
    CRC32 hash (test run)    : 9B41C202
    CRC32 hash               : 9B41C202
    CRC32 hash (skip zero)   : 0026E3CB
    AccurateRip v1 signature : 66A743F1
    AccurateRip v2 signature : D9069574
        ->Track not present in AccurateRip database.
    Statistics
        Read error                           : 0
        Jitter error (maybe fixed)           : 0
        Retry sector count                   : 0
        Damaged sector count                 : 0
Track 10
    Filename : /Users/Bea/Downloads/Philippe B - La Grande Nuit Video (2017) [FLAC]/10 Ellipse.flac
    Track gain               : -3.86 dB
    Peak                     : 0.891296
    CRC32 hash (test run)    : 05196F2C
    CRC32 hash               : 05196F2C
    CRC32 hash (skip zero)   : 42251837
    AccurateRip v1 signature : 2AF46035
    AccurateRip v2 signature : 15AF150D
        ->Track not present in AccurateRip database.
    Statistics
        Read error                           : 0
        Jitter error (maybe fixed)           : 0
        Retry sector count                   : 0
        Damaged sector count                 : 0
Track 11
    Filename : /Users/Bea/Downloads/Philippe B - La Grande Nuit Video (2017) [FLAC]/11 Anywhere.flac
    Track gain               : -7.46 dB
    Peak                     : 0.940247
    CRC32 hash (test run)    : 554357BB
    CRC32 hash               : 554357BB
    CRC32 hash (skip zero)   : EAB5C84B
    AccurateRip v1 signature : CCDFB410
    AccurateRip v2 signature : AA6D1296
        ->Track not present in AccurateRip database.
    Statistics
        Read error                           : 0
        Jitter error (maybe fixed)           : 0
        Retry sector count                   : 0
        Damaged sector count                 : 0
Track 12
    Filename : /Users/Bea/Downloads/Philippe B - La Grande Nuit Video (2017) [FLAC]/12 Les Enchaines.flac
    Track gain               : -5.94 dB
    Peak                     : 0.940613
    CRC32 hash (test run)    : 5A3BE59A
    CRC32 hash               : 5A3BE59A
    CRC32 hash (skip zero)   : E072ED24
    AccurateRip v1 signature : EDDB6AD7
    AccurateRip v2 signature : 86F400C2
        ->Track not present in AccurateRip database.
    Statistics
        Read error                           : 0
        Jitter error (maybe fixed)           : 0
        Retry sector count                   : 0
        Damaged sector count                 : 0
Track 13
    Filename : /Users/Bea/Downloads/Philippe B - La Grande Nuit Video (2017) [FLAC]/13 La Grande Nuit Video.flac
    Track gain               : -6.44 dB
    Peak                     : 0.949127
    CRC32 hash (test run)    : 3FEB0D9C
    CRC32 hash               : 3FEB0D9C
    CRC32 hash (skip zero)   : CA06D9ED
    AccurateRip v1 signature : 7C318E69
    AccurateRip v2 signature : B98D1F50
        ->Track not present in AccurateRip database.
    Statistics
        Read error                           : 0
        Jitter error (maybe fixed)           : 0
        Retry sector count                   : 0
        Damaged sector count                 : 0
Track 14
    Filename : /Users/Bea/Downloads/Philippe B - La Grande Nuit Video (2017) [FLAC]/14 Les Disparus.flac
    Track gain               : -5.82 dB
    Peak                     : 0.940063
    CRC32 hash (test run)    : 533B0B2D
    CRC32 hash               : 533B0B2D
    CRC32 hash (skip zero)   : 5F410C38
    AccurateRip v1 signature : 27F75FB4
    AccurateRip v2 signature : 4A32E358
        ->Track not present in AccurateRip database.
    Statistics
        Read error                           : 0
        Jitter error (maybe fixed)           : 0
        Retry sector count                   : 0
        Damaged sector count                 : 0
No errors occurred
End of status report
-----BEGIN XLD SIGNATURE-----
nVfzffZ.3.1oF4BiY_8mudJljGTLvsvKhzwHO_Q1efMQ_ags6MqZxdVTio83r6MrLWWXfWFFtd3UO3zj9puhab7LcfBU0AgcOx0.KLG
-----END XLD SIGNATURE-----
Код:
REM COMMENT "X Lossless Decoder CUE sheet"
PERFORMER "Philippe B"
TITLE "La grande nuit vidéo"
REM DATE 2017
REM DISCNUMBER 1
REM GENRE "French Folk"
FILE "01. Explosion.flac" WAVE
  TRACK 01 AUDIO
    PERFORMER "Philippe B"
    TITLE "Explosion"
    INDEX 01 00:00:00
FILE "02. SortieExit.flac" WAVE
  TRACK 02 AUDIO
    PERFORMER "Philippe B"
    TITLE "Sortie/Exit"
    INDEX 01 00:00:00
FILE "03. Autoportrait (sans lunettes).flac" WAVE
  TRACK 03 AUDIO
    PERFORMER "Philippe B"
    TITLE "Autoportrait (sans lunettes)"
    INDEX 01 00:00:00
FILE "04. Debra Winger.flac" WAVE
  TRACK 04 AUDIO
    PERFORMER "Philippe B"
    TITLE "Debra Winger"
    INDEX 01 00:00:00
FILE "05. La saison de tous les dangers.flac" WAVE
  TRACK 05 AUDIO
    PERFORMER "Philippe B"
    TITLE "La saison de tous les dangers"
    INDEX 01 00:00:00
FILE "06. Rouge-gorge.flac" WAVE
  TRACK 06 AUDIO
    PERFORMER "Philippe B"
    TITLE "Rouge-gorge"
    INDEX 01 00:00:00
FILE "07. Je t'aime, je t'aime.flac" WAVE
  TRACK 07 AUDIO
    PERFORMER "Philippe B"
    TITLE "Je t'aime, je t'aime"
    INDEX 01 00:00:00
FILE "08. Interurbain.flac" WAVE
  TRACK 08 AUDIO
    PERFORMER "Philippe B"
    TITLE "Interurbain"
    INDEX 01 00:00:00
FILE "09. Le monstre du lac Témiscamingue.flac" WAVE
  TRACK 09 AUDIO
    PERFORMER "Philippe B"
    TITLE "Le monstre du lac Témiscamingue"
    INDEX 01 00:00:00
FILE "10. Ellipse.flac" WAVE
  TRACK 10 AUDIO
    PERFORMER "Philippe B"
    TITLE "Ellipse"
    INDEX 01 00:00:00
FILE "11. Anywhere.flac" WAVE
  TRACK 11 AUDIO
    PERFORMER "Philippe B"
    TITLE "Anywhere"
    INDEX 01 00:00:00
FILE "12. Les enchaînés.flac" WAVE
  TRACK 12 AUDIO
    PERFORMER "Philippe B"
    TITLE "Les enchaînés"
    INDEX 01 00:00:00
FILE "13. La grande nuit vidéo.flac" WAVE
  TRACK 13 AUDIO
    PERFORMER "Philippe B"
    TITLE "La grande nuit vidéo"
    INDEX 01 00:00:00
FILE "14. Les disparus.flac" WAVE
  TRACK 14 AUDIO
    PERFORMER "Philippe B"
    TITLE "Les disparus"
    INDEX 01 00:00:00
Beauty is still at the center of the work of Philippe B. On the big night video, its fifth in solo mode, it presents several facets. First of all by the richness of the arrangements, never pompous, always at the service of the song. Then by poetry at once simple and abounding; A dichotomy skilfully mastered by Philippe B. Finally, there are these three songs where the wonderful voice of Laurence Lafond-Beaulne (a half of Milk & Bone) comes to surprise the listener and to marry to the universe of the author. The most embodied duo is probably the one for Rouge-gorge, a beautiful ballad tinged with love passion that explodes in a capsizing orchestral bridge. The other two: Out Exit and Anywhere are also among the favorite pieces of the album.
Philippe B makes us once again waltz between the guitars and the piano and if the texts are strong and pictorial; Melodically, it first seemed to me to do a little bit of place. The feeling that it moves in a certain comfort fades after a few listenings. The album sounds very "Philippe B" and if such a statement may seem simplistic, it aims rather to demonstrate that we love Philippe B when he surprises us. Songs like Self-portrait or The Season of All Dangers, while pretty, could very well have been on Ornithology, for example at night. This continuity could have been a proof of a certain comfort, but in the course of listening, the album embraces an identity of its own and we appreciate all those small subtleties that anchor the songs in this record to the character of romantico-dramatic comedy.
In intercity Philippe B sings: "But you know the beauty, hides a little everywhere, it must be tame, that it comes to us ..." These words summarize wonderfully the link that binds me to this album. An album of love, profoundly human in all its blunders, its poetry and its unpredictability.
Правила, инструкции, FAQ!!!
Торрент  Добавлен [01 янв 2020, 22:48] Скачать торрент Магнет ссылка
Скачать торрент
[ Размер 16.3 КБ / Просмотров 1 ]

Статус
Проверен 
 
Размер  191.23 МБ
Приватный: Нет (DHT включён)
.torrent скачан  0
 


     Отправить личное сообщение
   
Страница 1 из 1
Показать сообщения за:  Поле сортировки  
Начать новую тему Ответить на тему


Сейчас этот форум просматривают: нет зарегистрированных пользователей и гости: 0


Вы не можете начинать темы
Вы не можете отвечать на сообщения
Вы не можете редактировать свои сообщения
Вы не можете удалять свои сообщения
Вы не можете добавлять вложения

Перейти:  
cron