Начать новую тему Ответить на тему
Статистика раздачи
Размер: 1.07 ГБ | Добавлен: 01 янв 2020, 22:56 | Скачали: 0
Сидеров: 0  [0 байт/сек]    Личеров: 0  [0 байт/сек]
Пред. тема | След. тема 

Автор
Сообщение

СообщениеДобавлено: 01 янв 2020, 22:56 

Ответить с цитатой 

Ridan / Complete Discography (4CD) 2004-2012
Жанр: Chanson Francaise
Страна-производитель диска: EU
Год издания: 2004-2009
Издатель (лейбл): Sony Music Entertaiment (France)
Страна: France
Аудиокодек: FLAC (*.flac)
Тип рипа: tracks+.cue
Битрейт аудио: lossless
Продолжительность: 2:00:25
Источник (релизер): CDs
Наличие сканов в содержимом раздачи: yes (600 dpi)
Характерной особенностью исполнителя франко-алжирского происхождения Nadir Kouidri, выступающего под сценическим псевдонимом Ridan (Nadir - при чтении наоборот), является ярко выраженный мелодизм, на который положены острые (и даже жесткие) тексты.
Вот как описывает жанровую принадлежность Ridan портал All-Music Guide:
"Genres: Rap, International.
Styles: Hardcore Rap, French, Western European Traditions".


22.09.2012 торрент перезалит. Добавлен альбом "Madame la Republique" [2012]. Теперь опубликована полная дискография Ridan.
Тем, кто скачал торрент ранее, просьба скачать только добавленный альбом, поместить его в папку с ранее скачанными альбомами Ridan, и обновить хэш.

Треклист:
#777
Ridan 2004 Le rève ou la vie (42:24) [Sony Music)
1. Le rêve [4:19]
2. Le quotidien [4:00]
3. Laisse béton [3:52]
4. L'agriculteur [5:13]
5. Demain [3:39]
6. Le rêve ou la vie [3:12]
7. Pauvre con [3:42]
8. Woman [5:07]
9. Flic'n blues [4:16]
10. Partie de golf [5:01]
#777
Ridan 2007 L'ange de mon démon (39:58) [Sony Music]
1. J'en peux plus [4:04]
2. Rentre chez toi [3:40)
3. Ulysse [4:35]
4. Dans ma rue [4:13]
5. Les fleurs [5:19]
6. 60 millions d'amis [3:06]
7. Objectif terre [3:57]
8. Le soleil bleu [3:23]
9. Alerte à la bombe [3:44]
10. On l'aime quand même [3:52]
#777
Ridan 2009 L'un est l'autre (38:03) [Sony Music]
1. On est comme on naît [3:57]
2. Passe à ton voisin [3:33]
3. En attendant la fin [2:57]
4. Ma petite chipie [2:59]
5. Où sont les roses [3:12]
6. Le petit prince [3:25]
7. Ma fée d'hiver [2:57]
8. Star minute [3:06]
9. Répondez-moi [3:55]
10. A quoi ça rime [5:29]
#777
Ridan 2012 Madame la République (40:59) [Les Fleurs, le Béton]
1. Le petit malandrin [1:12]
2. La comédie humaine [3:17]
3. Madame la république [3:22]
4. Les enfants de colonies [2:30]
5. Un étrange étranger [0:58]
6. Ah les salauds! [3:11]
7. Le Syndrome du petit beur [3:13]
8. Le mensonger [2:20]
9. Le manège enchanté [3:03]
10. Le mont des lys [3:33]
11. Ali baba et les 40 valeurs [3:49]
12. La fleur au fusil [3:12]
13. Imo pectore [3:35]
14. L'indigné [3:44]
AMG review
by Jon O'Brien

Continuing his uncompromising and revolutionary lyrical approach, French-Algerian urban poet Nadir Kouidri, aka Ridan, offers his unique take on a whole host of issues including anti-capitalism, political corruption, and racism on his fourth studio album, Madame la République. Inspired by the classic chansons of Georges Brassens, Serge Gainsbourg, and Jacques Brel, the follow-up to 2009's L'un Est l'Autre includes the single "Ah Les Salauds."
Код:
Exact Audio Copy V1.0 beta 3 from 29. August 2011
EAC extraction logfile from 8. July 2012, 0:33
Ridan / Le rêve ou la vie
Used drive  : Optiarc DVD RW AD-7700H   Adapter: 0  ID: 1
Read mode               : Secure
Utilize accurate stream : Yes
Defeat audio cache      : Yes
Make use of C2 pointers : No
Read offset correction                      : 48
Overread into Lead-In and Lead-Out          : No
Fill up missing offset samples with silence : Yes
Delete leading and trailing silent blocks   : No
Null samples used in CRC calculations       : Yes
Used interface                              : Native Win32 interface for Win NT & 2000
Gap handling                                : Appended to previous track
Used output format              : User Defined Encoder
Selected bitrate                : 32 kBit/s
Quality                         : High
Add ID3 tag                     : No
Command line compressor         : C:\Program Files (x86)\Exact Audio Copy\Flac\flac.exe
Additional command line options : -8 -V -T "ARTIST=%artist%" -T "TITLE=%title%" -T "ALBUM=%albumtitle%" -T "DATE=%year%" -T "TRACKNUMBER=%tracknr%" -T "GENRE=%genre%" -T "COMMENT=%comment%" -T "BAND=%albuminterpret%" -T "COMPOSER=%composer%" %haslyrics%--tag-from-file=LYRICS="%lyricsfile%"%haslyrics% -T "DISCNUMBER=%cdnumber%" -T "TOTALDISCS=%totalcds%" -T "TOTALTRACKS=%numtracks%" %hascover%--picture="%coverfile%"%hascover% %source% -o %dest%
TOC of the extracted CD
     Track |   Start  |  Length  | Start sector | End sector
    ---------------------------------------------------------
        1  |  0:00.00 |  4:19.00 |         0    |    19424
        2  |  4:19.00 |  4:00.19 |     19425    |    37443
        3  |  8:19.19 |  3:52.19 |     37444    |    54862
        4  | 12:11.38 |  5:13.12 |     54863    |    78349
        5  | 17:24.50 |  3:39.23 |     78350    |    94797
        6  | 21:03.73 |  3:12.21 |     94798    |   109218
        7  | 24:16.19 |  3:42.61 |    109219    |   125929
        8  | 27:59.05 |  5:07.31 |    125930    |   148985
        9  | 33:06.36 |  4:16.41 |    148986    |   168226
       10  | 37:23.02 |  5:01.21 |    168227    |   190822
Track  1
     Filename C:\Users\sony\Music\Rutracker_Seeds\01 - Le rêve.wav
     Pre-gap length  0:00:02.00
     Peak level 95.6 %
     Extraction speed 2.8 X
     Track quality 100.0 %
     Test CRC B458A54D
     Copy CRC B458A54D
     Cannot be verified as accurate (confidence 12)  [81A727B6], AccurateRip returned [AF21FF10]  (AR v2)
     Copy OK
Track  2
     Filename C:\Users\sony\Music\Rutracker_Seeds\02 - Le quotidien.wav
     Pre-gap length  0:00:01.57
     Peak level 94.3 %
     Extraction speed 3.1 X
     Track quality 100.0 %
     Test CRC 8764685C
     Copy CRC 8764685C
     Cannot be verified as accurate (confidence 12)  [D518FCFD], AccurateRip returned [E7384C21]  (AR v2)
     Copy OK
Track  3
     Filename C:\Users\sony\Music\Rutracker_Seeds\03 - Laisse-béton.wav
     Pre-gap length  0:00:02.27
     Peak level 97.6 %
     Extraction speed 3.3 X
     Track quality 100.0 %
     Test CRC 91D433B6
     Copy CRC 91D433B6
     Cannot be verified as accurate (confidence 12)  [B6352716], AccurateRip returned [7894D261]  (AR v2)
     Copy OK
Track  4
     Filename C:\Users\sony\Music\Rutracker_Seeds\04 - L'agriculteur.wav
     Pre-gap length  0:00:01.57
     Peak level 92.7 %
     Extraction speed 3.7 X
     Track quality 100.0 %
     Test CRC 62A803AF
     Copy CRC 62A803AF
     Cannot be verified as accurate (confidence 12)  [C39D6DD7], AccurateRip returned [23EFBB47]  (AR v2)
     Copy OK
Track  5
     Filename C:\Users\sony\Music\Rutracker_Seeds\05 - Demain.wav
     Pre-gap length  0:00:02.18
     Peak level 90.5 %
     Extraction speed 3.6 X
     Track quality 100.0 %
     Test CRC CB01FB84
     Copy CRC CB01FB84
     Cannot be verified as accurate (confidence 12)  [500C343D], AccurateRip returned [13653DD6]  (AR v2)
     Copy OK
Track  6
     Filename C:\Users\sony\Music\Rutracker_Seeds\06 - Le rêve ou la vie.wav
     Pre-gap length  0:00:01.57
     Peak level 90.5 %
     Extraction speed 3.9 X
     Track quality 100.0 %
     Test CRC B44A62AF
     Copy CRC B44A62AF
     Cannot be verified as accurate (confidence 12)  [5E06FFBE], AccurateRip returned [C46AC49A]  (AR v2)
     Copy OK
Track  7
     Filename C:\Users\sony\Music\Rutracker_Seeds\07 - Pauvre con.wav
     Pre-gap length  0:00:03.30
     Peak level 94.3 %
     Extraction speed 4.2 X
     Track quality 100.0 %
     Test CRC E73C5545
     Copy CRC E73C5545
     Cannot be verified as accurate (confidence 12)  [4B52DA11], AccurateRip returned [A79536D4]  (AR v2)
     Copy OK
Track  8
     Filename C:\Users\sony\Music\Rutracker_Seeds\08 - Woman.wav
     Pre-gap length  0:00:02.69
     Peak level 94.3 %
     Extraction speed 3.9 X
     Track quality 99.9 %
     Test CRC D6911C7E
     Copy CRC D6911C7E
     Cannot be verified as accurate (confidence 11)  [C49668CF], AccurateRip returned [CB93F289]  (AR v2)
     Copy OK
Track  9
     Filename C:\Users\sony\Music\Rutracker_Seeds\09 - Flic'n blues.wav
     Pre-gap length  0:00:03.28
     Peak level 94.3 %
     Extraction speed 4.6 X
     Track quality 100.0 %
     Test CRC DEFC5FDB
     Copy CRC DEFC5FDB
     Cannot be verified as accurate (confidence 12)  [DAB2CC5A], AccurateRip returned [30B8FBD3]  (AR v2)
     Copy OK
Track 10
     Filename C:\Users\sony\Music\Rutracker_Seeds\10 - Partie de golf.wav
     Pre-gap length  0:00:01.15
     Peak level 90.5 %
     Extraction speed 5.0 X
     Track quality 100.0 %
     Test CRC 601147F2
     Copy CRC 601147F2
     Cannot be verified as accurate (confidence 11)  [8E4CE39E], AccurateRip returned [71431029]  (AR v2)
     Copy OK
No tracks could be verified as accurate
You may have a different pressing from the one(s) in the database
No errors occurred
End of status report
==== Log checksum 5A9978ACDF413D06A09D197944C15CDB4693694DA82CBA4B2BD9A77B3503BF4E ====
Код:
Exact Audio Copy V1.0 beta 3 from 29. August 2011
EAC extraction logfile from 7. July 2012, 14:05
Ridan / L'ange de mon démon
Used drive  : Optiarc DVD RW AD-7700H   Adapter: 0  ID: 1
Read mode               : Secure
Utilize accurate stream : Yes
Defeat audio cache      : Yes
Make use of C2 pointers : No
Read offset correction                      : 48
Overread into Lead-In and Lead-Out          : No
Fill up missing offset samples with silence : Yes
Delete leading and trailing silent blocks   : No
Null samples used in CRC calculations       : Yes
Used interface                              : Native Win32 interface for Win NT & 2000
Gap handling                                : Appended to previous track
Used output format              : User Defined Encoder
Selected bitrate                : 32 kBit/s
Quality                         : High
Add ID3 tag                     : No
Command line compressor         : C:\Program Files (x86)\Exact Audio Copy\Flac\flac.exe
Additional command line options : -8 -V -T "ARTIST=%artist%" -T "TITLE=%title%" -T "ALBUM=%albumtitle%" -T "DATE=%year%" -T "TRACKNUMBER=%tracknr%" -T "GENRE=%genre%" -T "COMMENT=%comment%" -T "BAND=%albuminterpret%" -T "COMPOSER=%composer%" %haslyrics%--tag-from-file=LYRICS="%lyricsfile%"%haslyrics% -T "DISCNUMBER=%cdnumber%" -T "TOTALDISCS=%totalcds%" -T "TOTALTRACKS=%numtracks%" %hascover%--picture="%coverfile%"%hascover% %source% -o %dest%
TOC of the extracted CD
     Track |   Start  |  Length  | Start sector | End sector
    ---------------------------------------------------------
        1  |  0:00.00 |  4:04.68 |         0    |    18367
        2  |  4:04.68 |  3:40.06 |     18368    |    34873
        3  |  7:44.74 |  4:35.22 |     34874    |    55520
        4  | 12:20.21 |  4:13.15 |     55521    |    74510
        5  | 16:33.36 |  5:19.58 |     74511    |    98493
        6  | 21:53.19 |  3:06.15 |     98494    |   112458
        7  | 24:59.34 |  3:57.67 |    112459    |   130300
        8  | 28:57.26 |  3:23.26 |    130301    |   145551
        9  | 32:20.52 |  3:44.35 |    145552    |   162386
       10  | 36:05.12 |  3:52.64 |    162387    |   179850
Track  1
     Filename C:\Users\sony\Music\Rutracker_Seeds\01 - J'en peux plus.wav
     Pre-gap length  0:00:02.00
     Peak level 100.0 %
     Extraction speed 1.1 X
     Track quality 100.0 %
     Test CRC 6597BD0B
     Copy CRC 6597BD0B
     Accurately ripped (confidence 4)  [A332F428]  (AR v2)
     Copy OK
Track  2
     Filename C:\Users\sony\Music\Rutracker_Seeds\02 - Ulysse.wav
     Pre-gap length  0:00:01.16
     Peak level 100.0 %
     Extraction speed 1.1 X
     Track quality 99.9 %
     Test CRC 41956DB2
     Copy CRC 41956DB2
     Accurately ripped (confidence 4)  [A08E1318]  (AR v2)
     Copy OK
Track  3
     Filename C:\Users\sony\Music\Rutracker_Seeds\03 - Rentre chez toi.wav
     Pre-gap length  0:00:00.56
     Peak level 100.0 %
     Extraction speed 1.4 X
     Track quality 100.0 %
     Test CRC F5415E29
     Copy CRC F5415E29
     Accurately ripped (confidence 4)  [50A9B9B1]  (AR v2)
     Copy OK
Track  4
     Filename C:\Users\sony\Music\Rutracker_Seeds\04 - Les fleurs.wav
     Pre-gap length  0:00:00.19
     Peak level 100.0 %
     Extraction speed 1.5 X
     Track quality 100.0 %
     Test CRC 1CD5ED74
     Copy CRC 1CD5ED74
     Accurately ripped (confidence 4)  [9FC97A1A]  (AR v2)
     Copy OK
Track  5
     Filename C:\Users\sony\Music\Rutracker_Seeds\05 - Dans ma rue.wav
     Peak level 100.0 %
     Extraction speed 1.7 X
     Track quality 100.0 %
     Test CRC 4BA6D176
     Copy CRC 4BA6D176
     Accurately ripped (confidence 4)  [69690016]  (AR v2)
     Copy OK
Track  6
     Filename C:\Users\sony\Music\Rutracker_Seeds\06 - 60 millions d'amis.wav
     Peak level 94.3 %
     Extraction speed 1.7 X
     Track quality 100.0 %
     Test CRC B4D7F48C
     Copy CRC B4D7F48C
     Accurately ripped (confidence 4)  [8511D634]  (AR v2)
     Copy OK
Track  7
     Filename C:\Users\sony\Music\Rutracker_Seeds\07 - Objectif terre.wav
     Pre-gap length  0:00:01.53
     Peak level 100.0 %
     Extraction speed 1.8 X
     Track quality 100.0 %
     Test CRC 698234AD
     Copy CRC 698234AD
     Accurately ripped (confidence 4)  [E935AF96]  (AR v2)
     Copy OK
Track  8
     Filename C:\Users\sony\Music\Rutracker_Seeds\08 - Le soleil bleu.wav
     Pre-gap length  0:00:02.22
     Peak level 100.0 %
     Extraction speed 1.9 X
     Track quality 100.0 %
     Test CRC EAEC58D7
     Copy CRC EAEC58D7
     Accurately ripped (confidence 4)  [1505F0A7]  (AR v2)
     Copy OK
Track  9
     Filename C:\Users\sony\Music\Rutracker_Seeds\09 - Alerte à la bombe.wav
     Pre-gap length  0:00:02.70
     Peak level 100.0 %
     Extraction speed 1.9 X
     Track quality 100.0 %
     Test CRC EB256D71
     Copy CRC EB256D71
     Accurately ripped (confidence 4)  [C3C0F98C]  (AR v2)
     Copy OK
Track 10
     Filename C:\Users\sony\Music\Rutracker_Seeds\10 - On l'aime quand même.wav
     Pre-gap length  0:00:03.31
     Peak level 100.0 %
     Extraction speed 2.0 X
     Track quality 100.0 %
     Test CRC 44F184FD
     Copy CRC 44F184FD
     Accurately ripped (confidence 4)  [49D60E88]  (AR v2)
     Copy OK
All tracks accurately ripped
No errors occurred
End of status report
==== Log checksum 73CC6C50349BAD9D9AC0F7C60CFF4D539B1D965F37F4500F4DF5E85DDDE85B49 ====
Код:
Exact Audio Copy V1.0 beta 3 from 29. August 2011
EAC extraction logfile from 7. July 2012, 13:08
Ridan / l'un et l'autre
Used drive  : Optiarc DVD RW AD-7700H   Adapter: 0  ID: 1
Read mode               : Secure
Utilize accurate stream : Yes
Defeat audio cache      : Yes
Make use of C2 pointers : No
Read offset correction                      : 48
Overread into Lead-In and Lead-Out          : No
Fill up missing offset samples with silence : Yes
Delete leading and trailing silent blocks   : No
Null samples used in CRC calculations       : Yes
Used interface                              : Native Win32 interface for Win NT & 2000
Gap handling                                : Appended to previous track
Used output format              : User Defined Encoder
Selected bitrate                : 32 kBit/s
Quality                         : High
Add ID3 tag                     : No
Command line compressor         : C:\Program Files (x86)\Exact Audio Copy\Flac\flac.exe
Additional command line options : -8 -V -T "ARTIST=%artist%" -T "TITLE=%title%" -T "ALBUM=%albumtitle%" -T "DATE=%year%" -T "TRACKNUMBER=%tracknr%" -T "GENRE=%genre%" -T "COMMENT=%comment%" -T "BAND=%albuminterpret%" -T "COMPOSER=%composer%" %haslyrics%--tag-from-file=LYRICS="%lyricsfile%"%haslyrics% -T "DISCNUMBER=%cdnumber%" -T "TOTALDISCS=%totalcds%" -T "TOTALTRACKS=%numtracks%" %hascover%--picture="%coverfile%"%hascover% %source% -o %dest%
TOC of the extracted CD
     Track |   Start  |  Length  | Start sector | End sector
    ---------------------------------------------------------
        1  |  0:00.00 |  3:57.11 |         0    |    17785
        2  |  3:57.11 |  3:33.01 |     17786    |    33761
        3  |  7:30.12 |  2:57.01 |     33762    |    47037
        4  | 10:27.13 |  2:59.01 |     47038    |    60463
        5  | 13:26.14 |  3:12.50 |     60464    |    74913
        6  | 16:38.64 |  3:25.23 |     74914    |    90311
        7  | 20:04.12 |  2:57.44 |     90312    |   103630
        8  | 23:01.56 |  3:06.03 |    103631    |   117583
        9  | 26:07.59 |  3:55.00 |    117584    |   135208
       10  | 30:02.59 |  5:29.00 |    135209    |   159883
       11  | 38:03.59 |  6:38.37 |    171284    |   201170
Track  1
     Filename C:\Users\sony\Music\Rutracker_Seeds\01 - On est comme on nait.wav
     Pre-gap length  0:00:02.00
     Peak level 100.0 %
     Extraction speed 1.1 X
     Track quality 100.0 %
     Test CRC F2E3CE16
     Copy CRC F2E3CE16
     Accurately ripped (confidence 6)  [B63DEF9C]  (AR v1)
     Copy OK
Track  2
     Filename C:\Users\sony\Music\Rutracker_Seeds\02 - Passe à Ton Voisin.wav
     Pre-gap length  0:00:02.26
     Peak level 100.0 %
     Extraction speed 1.2 X
     Track quality 100.0 %
     Test CRC A4FF51C4
     Copy CRC A4FF51C4
     Accurately ripped (confidence 7)  [873538E0]  (AR v1)
     Copy OK
Track  3
     Filename C:\Users\sony\Music\Rutracker_Seeds\03 - En attendant la fin.wav
     Pre-gap length  0:00:02.52
     Peak level 100.0 %
     Extraction speed 1.3 X
     Track quality 100.0 %
     Test CRC 4E9A1395
     Copy CRC 4E9A1395
     Accurately ripped (confidence 6)  [57C91FDE]  (AR v1)
     Copy OK
Track  4
     Filename C:\Users\sony\Music\Rutracker_Seeds\04 - Ma petite chipie.wav
     Peak level 100.0 %
     Extraction speed 1.4 X
     Track quality 100.0 %
     Test CRC 268854E6
     Copy CRC 268854E6
     Accurately ripped (confidence 6)  [79BE73F6]  (AR v1)
     Copy OK
Track  5
     Filename C:\Users\sony\Music\Rutracker_Seeds\05 - Où sont les roses.wav
     Pre-gap length  0:00:01.69
     Peak level 100.0 %
     Extraction speed 1.5 X
     Track quality 100.0 %
     Test CRC 829B486B
     Copy CRC 829B486B
     Accurately ripped (confidence 6)  [DF57A8E8]  (AR v1)
     Copy OK
Track  6
     Filename C:\Users\sony\Music\Rutracker_Seeds\06 - Le Petit Prince.wav
     Pre-gap length  0:00:01.27
     Peak level 100.0 %
     Extraction speed 1.6 X
     Track quality 100.0 %
     Test CRC 121AB4DF
     Copy CRC 121AB4DF
     Accurately ripped (confidence 6)  [1A4B015A]  (AR v1)
     Copy OK
Track  7
     Filename C:\Users\sony\Music\Rutracker_Seeds\07 - Ma fée d'hiver.wav
     Pre-gap length  0:00:03.03
     Peak level 100.0 %
     Extraction speed 1.3 X
     Track quality 99.9 %
     Test CRC BC1AB393
     Copy CRC BC1AB393
     Accurately ripped (confidence 6)  [1E22B7F3]  (AR v1)
     Copy OK
Track  8
     Filename C:\Users\sony\Music\Rutracker_Seeds\08 - Star minute.wav
     Pre-gap length  0:00:02.37
     Peak level 71.6 %
     Extraction speed 1.7 X
     Track quality 100.0 %
     Test CRC 0EBB54AB
     Copy CRC 0EBB54AB
     Accurately ripped (confidence 6)  [B2BF0E45]  (AR v1)
     Copy OK
Track  9
     Filename C:\Users\sony\Music\Rutracker_Seeds\09 - Répondez moi.wav
     Pre-gap length  0:00:04.28
     Peak level 86.1 %
     Extraction speed 1.8 X
     Track quality 100.0 %
     Test CRC 94ED19DE
     Copy CRC 94ED19DE
     Accurately ripped (confidence 6)  [EA100896]  (AR v1)
     Copy OK
Track 10
     Filename C:\Users\sony\Music\Rutracker_Seeds\10 - A quoi ça rime.wav
     Pre-gap length  0:00:02.57
     Peak level 89.1 %
     Extraction speed 1.8 X
     Track quality 99.9 %
     Test CRC F90FFD97
     Copy CRC F90FFD97
     Accurately ripped (confidence 6)  [FBF111C1]  (AR v1)
     Copy OK
All tracks accurately ripped
No errors occurred
End of status report
==== Log checksum 2783A670345512E0EBFF48EA0B3E26EC370AAAA734926C207ED0064B09A69518 ====
Код:
Exact Audio Copy V1.0 beta 3 from 29. August 2011
EAC extraction logfile from 21. September 2012, 21:07
Ridan / Madame la République
Used drive  : Optiarc DVD RW AD-7700H   Adapter: 0  ID: 1
Read mode               : Secure
Utilize accurate stream : Yes
Defeat audio cache      : Yes
Make use of C2 pointers : No
Read offset correction                      : 48
Overread into Lead-In and Lead-Out          : No
Fill up missing offset samples with silence : Yes
Delete leading and trailing silent blocks   : No
Null samples used in CRC calculations       : Yes
Used interface                              : Native Win32 interface for Win NT & 2000
Gap handling                                : Appended to previous track
Used output format              : User Defined Encoder
Selected bitrate                : 32 kBit/s
Quality                         : High
Add ID3 tag                     : No
Command line compressor         : C:\Program Files (x86)\Exact Audio Copy\Flac\flac.exe
Additional command line options : -8 -V -T "ARTIST=%artist%" -T "TITLE=%title%" -T "ALBUM=%albumtitle%" -T "DATE=%year%" -T "TRACKNUMBER=%tracknr%" -T "GENRE=%genre%" -T "COMMENT=%comment%" -T "BAND=%albuminterpret%" -T "COMPOSER=%composer%" %haslyrics%--tag-from-file=LYRICS="%lyricsfile%"%haslyrics% -T "DISCNUMBER=%cdnumber%" -T "TOTALDISCS=%totalcds%" -T "TOTALTRACKS=%numtracks%" %hascover%--picture="%coverfile%"%hascover% %source% -o %dest%
TOC of the extracted CD
     Track |   Start  |  Length  | Start sector | End sector
    ---------------------------------------------------------
        1  |  0:00.00 |  1:12.60 |         0    |     5459
        2  |  1:12.60 |  3:17.73 |      5460    |    20307
        3  |  4:30.58 |  3:22.21 |     20308    |    35478
        4  |  7:53.04 |  2:30.74 |     35479    |    46802
        5  | 10:24.03 |  0:58.50 |     46803    |    51202
        6  | 11:22.53 |  3:11.13 |     51203    |    65540
        7  | 14:33.66 |  3:13.37 |     65541    |    80052
        8  | 17:47.28 |  2:20.61 |     80053    |    90613
        9  | 20:08.14 |  3:03.71 |     90614    |   104409
       10  | 23:12.10 |  3:33.45 |    104410    |   120429
       11  | 26:45.55 |  3:49.20 |    120430    |   137624
       12  | 30:35.00 |  3:12.23 |    137625    |   152047
       13  | 33:47.23 |  3:35.36 |    152048    |   168208
       14  | 37:22.59 |  3:44.33 |    168209    |   185041
Track  1
     Filename C:\Users\sony\Music\Rutracker_Seeds\01 - Le Petit Malandrin.wav
     Pre-gap length  0:00:02.00
     Peak level 100.0 %
     Extraction speed 0.8 X
     Track quality 100.0 %
     Test CRC 44B2655F
     Copy CRC 44B2655F
     Copy OK
Track  2
     Filename C:\Users\sony\Music\Rutracker_Seeds\02 - La Comédie Humaine.wav
     Peak level 100.0 %
     Extraction speed 1.1 X
     Track quality 100.0 %
     Test CRC 6C99BA8D
     Copy CRC 6C99BA8D
     Copy OK
Track  3
     Filename C:\Users\sony\Music\Rutracker_Seeds\03 - Madame La République.wav
     Pre-gap length  0:00:01.15
     Peak level 100.0 %
     Extraction speed 1.2 X
     Track quality 100.0 %
     Test CRC 073C3FB4
     Copy CRC 073C3FB4
     Copy OK
Track  4
     Filename C:\Users\sony\Music\Rutracker_Seeds\04 - Les Enfants de Colonies.wav
     Pre-gap length  0:00:00.24
     Peak level 100.0 %
     Extraction speed 1.3 X
     Track quality 100.0 %
     Test CRC 59B91C01
     Copy CRC 59B91C01
     Copy OK
Track  5
     Filename C:\Users\sony\Music\Rutracker_Seeds\05 - Un Etrange Etranger.wav
     Pre-gap length  0:00:00.32
     Peak level 89.1 %
     Extraction speed 1.0 X
     Track quality 100.0 %
     Test CRC 3443F7DA
     Copy CRC 3443F7DA
     Copy OK
Track  6
     Filename C:\Users\sony\Music\Rutracker_Seeds\06 - Ah Les Salauds !.wav
     Peak level 100.0 %
     Extraction speed 1.4 X
     Track quality 100.0 %
     Test CRC A67C9402
     Copy CRC A67C9402
     Copy OK
Track  7
     Filename C:\Users\sony\Music\Rutracker_Seeds\07 - Le Syndrome du Petit Beur.wav
     Pre-gap length  0:00:02.38
     Peak level 100.0 %
     Extraction speed 1.5 X
     Track quality 100.0 %
     Test CRC F0D7ADA9
     Copy CRC F0D7ADA9
     Copy OK
Track  8
     Filename C:\Users\sony\Music\Rutracker_Seeds\08 - Le Mensonger.wav
     Peak level 100.0 %
     Extraction speed 1.5 X
     Track quality 100.0 %
     Test CRC 48AB2DE6
     Copy CRC 48AB2DE6
     Copy OK
Track  9
     Filename C:\Users\sony\Music\Rutracker_Seeds\09 - Le Manège Enchanté.wav
     Pre-gap length  0:00:01.10
     Peak level 100.0 %
     Extraction speed 1.4 X
     Track quality 99.9 %
     Test CRC 2C65D6E0
     Copy CRC 2C65D6E0
     Copy OK
Track 10
     Filename C:\Users\sony\Music\Rutracker_Seeds\10 - Le Mont des Lys.wav
     Pre-gap length  0:00:01.00
     Peak level 100.0 %
     Extraction speed 1.7 X
     Track quality 100.0 %
     Test CRC 95E77F3B
     Copy CRC 95E77F3B
     Copy OK
Track 11
     Filename C:\Users\sony\Music\Rutracker_Seeds\11 - Ali Baba Et Les 40 Valeurs.wav
     Pre-gap length  0:00:03.21
     Peak level 100.0 %
     Extraction speed 1.8 X
     Track quality 100.0 %
     Test CRC CC1BBE40
     Copy CRC CC1BBE40
     Copy OK
Track 12
     Filename C:\Users\sony\Music\Rutracker_Seeds\12 - La Fleur Au Fusil.wav
     Peak level 100.0 %
     Extraction speed 1.9 X
     Track quality 100.0 %
     Test CRC 682E97BC
     Copy CRC 682E97BC
     Copy OK
Track 13
     Filename C:\Users\sony\Music\Rutracker_Seeds\13 - Imo Pectore.wav
     Pre-gap length  0:00:00.39
     Peak level 100.0 %
     Extraction speed 1.7 X
     Track quality 99.9 %
     Test CRC 91B0210F
     Copy CRC 91B0210F
     Copy OK
Track 14
     Filename C:\Users\sony\Music\Rutracker_Seeds\14 - L'Indigné.wav
     Pre-gap length  0:00:02.50
     Peak level 100.0 %
     Extraction speed 1.8 X
     Track quality 99.9 %
     Test CRC B1DB6009
     Copy CRC B1DB6009
     Copy OK
No errors occurred
End of status report
==== Log checksum 49CB0465BC627E7F0D242FBFF89D6269AF663B1F4358018B387E85FF9606200D ====
Код:
REM GENRE R&B
REM DATE 2004
REM DISCID 8009F00A
REM COMMENT "ExactAudioCopy v1.0b3"
PERFORMER "Ridan"
TITLE "Le reve ou la vie"
FILE "01 - Le reve.wav" WAVE
  TRACK 01 AUDIO
    TITLE "Le reve"
    PERFORMER "Ridan"
    INDEX 01 00:00:00
  TRACK 02 AUDIO
    TITLE "Le quotidien"
    PERFORMER "Ridan"
    INDEX 00 04:17:18
FILE "02 - Le quotidien.wav" WAVE
    INDEX 01 00:00:00
  TRACK 03 AUDIO
    TITLE "Laisse-beton"
    PERFORMER "Ridan"
    INDEX 00 03:57:67
FILE "03 - Laisse-beton.wav" WAVE
    INDEX 01 00:00:00
  TRACK 04 AUDIO
    TITLE "L'agriculteur"
    PERFORMER "Ridan"
    INDEX 00 03:50:37
FILE "04 - L'agriculteur.wav" WAVE
    INDEX 01 00:00:00
  TRACK 05 AUDIO
    TITLE "Demain"
    PERFORMER "Ridan"
    INDEX 00 05:10:69
FILE "05 - Demain.wav" WAVE
    INDEX 01 00:00:00
  TRACK 06 AUDIO
    TITLE "Le reve ou la vie"
    PERFORMER "Ridan"
    INDEX 00 03:37:41
FILE "06 - Le reve ou la vie.wav" WAVE
    INDEX 01 00:00:00
  TRACK 07 AUDIO
    TITLE "Pauvre con"
    PERFORMER "Ridan"
    INDEX 00 03:08:66
FILE "07 - Pauvre con.wav" WAVE
    INDEX 01 00:00:00
  TRACK 08 AUDIO
    TITLE "Woman"
    PERFORMER "Ridan"
    INDEX 00 03:39:67
FILE "08 - Woman.wav" WAVE
    INDEX 01 00:00:00
  TRACK 09 AUDIO
    TITLE "Flic'n blues"
    PERFORMER "Ridan"
    INDEX 00 05:04:03
FILE "09 - Flic'n blues.wav" WAVE
    INDEX 01 00:00:00
  TRACK 10 AUDIO
    TITLE "Partie de golf"
    PERFORMER "Ridan"
    INDEX 00 04:15:26
FILE "10 - Partie de golf.wav" WAVE
    INDEX 01 00:00:00
Код:
REM GENRE Francais
REM DATE 2007
REM DISCID 87095E0A
REM COMMENT "ExactAudioCopy v1.0b3"
PERFORMER "Ridan"
TITLE "L'ange de mon demon"
FILE "01 - J'en peux plus.wav" WAVE
  TRACK 01 AUDIO
    TITLE "J'en peux plus"
    PERFORMER "Ridan"
    INDEX 01 00:00:00
  TRACK 02 AUDIO
    TITLE "Ulysse"
    PERFORMER "Ridan"
    INDEX 00 04:03:52
FILE "02 - Ulysse.wav" WAVE
    INDEX 01 00:00:00
  TRACK 03 AUDIO
    TITLE "Rentre chez toi"
    PERFORMER "Ridan"
    INDEX 00 03:39:25
FILE "03 - Rentre chez toi.wav" WAVE
    INDEX 01 00:00:00
  TRACK 04 AUDIO
    TITLE "Les fleurs"
    PERFORMER "Ridan"
    INDEX 00 04:35:03
FILE "04 - Les fleurs.wav" WAVE
    INDEX 01 00:00:00
FILE "05 - Dans ma rue.wav" WAVE
  TRACK 05 AUDIO
    TITLE "Dans ma rue"
    PERFORMER "Ridan"
    INDEX 01 00:00:00
FILE "06 - 60 millions d'amis.wav" WAVE
  TRACK 06 AUDIO
    TITLE "60 millions d'amis"
    PERFORMER "Ridan"
    INDEX 01 00:00:00
  TRACK 07 AUDIO
    TITLE "Objectif terre"
    PERFORMER "Ridan"
    INDEX 00 03:04:37
FILE "07 - Objectif terre.wav" WAVE
    INDEX 01 00:00:00
  TRACK 08 AUDIO
    TITLE "Le soleil bleu"
    PERFORMER "Ridan"
    INDEX 00 03:55:45
FILE "08 - Le soleil bleu.wav" WAVE
    INDEX 01 00:00:00
  TRACK 09 AUDIO
    TITLE "Alerte a la bombe"
    PERFORMER "Ridan"
    INDEX 00 03:20:31
FILE "09 - Alerte a la bombe.wav" WAVE
    INDEX 01 00:00:00
  TRACK 10 AUDIO
    TITLE "On l'aime quand meme"
    PERFORMER "Ridan"
    INDEX 00 03:41:04
FILE "10 - On l'aime quand meme.wav" WAVE
    INDEX 01 00:00:00
Код:
REM GENRE Chanson
REM DATE 2008
REM DISCID 880A7A0B
REM COMMENT "ExactAudioCopy v1.0b3"
PERFORMER "Ridan"
TITLE "l'un et l'autre"
FILE "01 - On est comme on nait.wav" WAVE
  TRACK 01 AUDIO
    TITLE "On est comme on nait"
    PERFORMER "Ridan"
    INDEX 01 00:00:00
  TRACK 02 AUDIO
    TITLE "Passe a Ton Voisin"
    PERFORMER "Ridan"
    INDEX 00 03:54:60
FILE "02 - Passe a Ton Voisin.wav" WAVE
    INDEX 01 00:00:00
  TRACK 03 AUDIO
    TITLE "En attendant la fin"
    PERFORMER "Ridan"
    INDEX 00 03:30:24
FILE "03 - En attendant la fin.wav" WAVE
    INDEX 01 00:00:00
FILE "04 - Ma petite chipie.wav" WAVE
  TRACK 04 AUDIO
    TITLE "Ma petite chipie"
    PERFORMER "Ridan"
    INDEX 01 00:00:00
  TRACK 05 AUDIO
    TITLE "Ou sont les roses"
    PERFORMER "Ridan"
    INDEX 00 02:57:07
FILE "05 - Ou sont les roses.wav" WAVE
    INDEX 01 00:00:00
  TRACK 06 AUDIO
    TITLE "Le Petit Prince"
    PERFORMER "Ridan"
    INDEX 00 03:11:23
FILE "06 - Le Petit Prince.wav" WAVE
    INDEX 01 00:00:00
  TRACK 07 AUDIO
    TITLE "Ma fee d'hiver"
    PERFORMER "Ridan"
    INDEX 00 03:22:20
FILE "07 - Ma fee d'hiver.wav" WAVE
    INDEX 01 00:00:00
  TRACK 08 AUDIO
    TITLE "Star minute"
    PERFORMER "Ridan"
    INDEX 00 02:55:07
FILE "08 - Star minute.wav" WAVE
    INDEX 01 00:00:00
  TRACK 09 AUDIO
    TITLE "Repondez moi"
    PERFORMER "Ridan"
    INDEX 00 03:01:50
FILE "09 - Repondez moi.wav" WAVE
    INDEX 01 00:00:00
  TRACK 10 AUDIO
    TITLE "A quoi ca rime"
    PERFORMER "Ridan"
    INDEX 00 03:52:18
FILE "10 - A quoi ca rime.wav" WAVE
    INDEX 01 00:00:00
  TRACK 11 MODEx/2xxx
    TITLE "Data"
    PERFORMER "Ridan"
    INDEX 00 05:29:00
Код:
REM GENRE "Chanson francaise"
REM DATE 2012
REM DISCID BB09A30E
REM COMMENT "ExactAudioCopy v1.0b3"
PERFORMER "Ridan"
TITLE "Madame la Republique"
FILE "01 - Le Petit Malandrin.wav" WAVE
  TRACK 01 AUDIO
    TITLE "Le Petit Malandrin"
    PERFORMER "Ridan"
    INDEX 01 00:00:00
FILE "02 - La Comedie Humaine.wav" WAVE
  TRACK 02 AUDIO
    TITLE "La Comedie Humaine"
    PERFORMER "Ridan"
    INDEX 01 00:00:00
  TRACK 03 AUDIO
    TITLE "Madame La Republique"
    PERFORMER "Ridan"
    INDEX 00 03:16:58
FILE "03 - Madame La Republique.wav" WAVE
    INDEX 01 00:00:00
  TRACK 04 AUDIO
    TITLE "Les Enfants de Colonies"
    PERFORMER "Ridan"
    INDEX 00 03:21:72
FILE "04 - Les Enfants de Colonies.wav" WAVE
    INDEX 01 00:00:00
  TRACK 05 AUDIO
    TITLE "Un Etrange Etranger"
    PERFORMER "Ridan"
    INDEX 00 02:30:42
FILE "05 - Un Etrange Etranger.wav" WAVE
    INDEX 01 00:00:00
FILE "06 - Ah Les Salauds !.wav" WAVE
  TRACK 06 AUDIO
    TITLE "Ah Les Salauds !"
    PERFORMER "Ridan"
    INDEX 01 00:00:00
  TRACK 07 AUDIO
    TITLE "Le Syndrome du Petit Beur"
    PERFORMER "Ridan"
    INDEX 00 03:08:50
FILE "07 - Le Syndrome du Petit Beur.wav" WAVE
    INDEX 01 00:00:00
FILE "08 - Le Mensonger.wav" WAVE
  TRACK 08 AUDIO
    TITLE "Le Mensonger"
    PERFORMER "Ridan"
    INDEX 01 00:00:00
  TRACK 09 AUDIO
    TITLE "Le Manege Enchante"
    PERFORMER "Ridan"
    INDEX 00 02:19:51
FILE "09 - Le Manege Enchante.wav" WAVE
    INDEX 01 00:00:00
  TRACK 10 AUDIO
    TITLE "Le Mont des Lys"
    PERFORMER "Ridan"
    INDEX 00 03:02:71
FILE "10 - Le Mont des Lys.wav" WAVE
    INDEX 01 00:00:00
  TRACK 11 AUDIO
    TITLE "Ali Baba Et Les 40 Valeurs"
    PERFORMER "Ridan"
    INDEX 00 03:30:24
FILE "11 - Ali Baba Et Les 40 Valeurs.wav" WAVE
    INDEX 01 00:00:00
FILE "12 - La Fleur Au Fusil.wav" WAVE
  TRACK 12 AUDIO
    TITLE "La Fleur Au Fusil"
    PERFORMER "Ridan"
    INDEX 01 00:00:00
  TRACK 13 AUDIO
    TITLE "Imo Pectore"
    PERFORMER "Ridan"
    INDEX 00 03:11:59
FILE "13 - Imo Pectore.wav" WAVE
    INDEX 01 00:00:00
  TRACK 14 AUDIO
    TITLE "L'Indigne"
    PERFORMER "Ridan"
    INDEX 00 03:32:61
FILE "14 - L'Indigne.wav" WAVE
    INDEX 01 00:00:00
Nadir Kouidri better known by his stage name Ridan (born 1975 in France), is a French singer/songwriter of Algerian origin launched into the limelight in 2004. His stage name is the reversal of his real name Nadir.
A French rapper known for using the local street slang dubbed "verlan" -- a style where syllables are inverted like in backslang or pig Latin -- Ridan came to fame in 2004, the year he released his debut album, Le Rêve Ou la Vie, which featured the hit single "Le Quotidien." Three years later he returned with L'Ange de Mon Démon, a much more serious album that asked the younger generation to hold onto hope in an increasingly turbulent world.
He is known for his urban poetry in French banlieue (suburbs). A recurring theme in his songs is the difficult life of Arab immigrants in France. One of his most famous and popular songs is "Ulysse".
Biographie
Il choisit comme nom d'artiste « Ridan », c'est-à-dire « Nadir » en lecture de droite à gauche.
Ancien rappeur, Ridan a notamment produit le maxi 30 Rappeurs contre la censure (sorti en 2004), et la compilation inédite Chroniques d'Alger, mais se détourne de ce genre musical devenu trop mercantile et trop communautaire à ses yeux1.
L'un des titres de Chroniques d'Alger (« Le quotidien ») est remarqué par un producteur qui lui permet de sortir, après quatre ans de préparation, son premier disque sur le label Sony BMG en 2004 et l'intitule Le Rêve ou la Vie.
Il se fait chantre de la chanson française vindicative, des mélodies douces et des mots comme il aime à le dire « rêches ». D'un côté, une musique, des pianos, des violons, seuls, joyeux ou bucoliques. Et puis sa voix, grave, qui surprend, quand elle crache la réalité de son quotidien. Mais l'artiste rêve, et c'est une balade dans ses songes à laquelle il convie son public. Plus politisés, certains de ses textes parlent de la place de l'individu dans notre époque et il n'hésite pas à mettre en avant sa propre individualité en évoquant son amertume et ses minces espoirs.
Ridan réussit le passage à la scène, notamment au Festival des Vieilles Charrues ou aux Solidays. Il est sacré aux Victoires de la musique 2005, dans la catégorie « Album révélation de l'année ».
Son deuxième album L'Ange de mon démon sort le 19 mars 2007. La chanson Ulysse, dont les paroles reprennent le poème Heureux qui comme Ulysse issu du recueil Les Regrets de Joachim du Bellay, remporte un succès notable. De même que Objectif Terre, second morceau tiré du disque, véritable hymne à l'environnement et à l'humanisme dont le texte sera même appris dans les écoles1. Après s'être produit sur la scène de l'Olympia la même année, Ridan poursuit sa tournée en 2008 à travers la France.
Son troisième album, L'un est l'autre, sort le 23 février 2009. Le morceau Passe à ton voisin en est le premier extrait public.
Février 2010, il annule sa tournée pour « raisons de santé », son site web officiel n'est plus mis à jour depuis fin 2009, aucune nouvelle de l'artiste depuis le début de l'année 2010. Fin 2010, l'artiste est en studio.
Son quatrième album, intitulé Madame La République est sorti le 10 avril 20122. Par ailleurs le premier extrait de l'album intitulé Ah les salauds ! fut l'objet d'une polémique puisque proscrit des radios généralistes en raison du message politique diffusé par le biais du morceau et du calendrier électoral plaçant les élections présidentielles françaises seulement trois mois après la sortie dudit morceau. Son engagement politique passe aussi au travers du soutien qu'il accorde à la candidature de Jean-Luc Mélenchon, candidat commun du Front de Gauche.
Правила, инструкции, FAQ!!!
Торрент  Добавлен [01 янв 2020, 22:56] Скачать торрент Магнет ссылка
Скачать торрент
[ Размер 22.69 КБ / Просмотров 1 ]

Статус
Проверен 
 
Размер  1.07 ГБ
Приватный: Нет (DHT включён)
.torrent скачан  0
 


     Отправить личное сообщение
   
Страница 1 из 1
Показать сообщения за:  Поле сортировки  
Начать новую тему Ответить на тему


Сейчас этот форум просматривают: нет зарегистрированных пользователей и гости: 0


Вы не можете начинать темы
Вы не можете отвечать на сообщения
Вы не можете редактировать свои сообщения
Вы не можете удалять свои сообщения
Вы не можете добавлять вложения

Перейти:  
cron