Начать новую тему Ответить на тему
Статистика раздачи
Размер: 196.76 МБ | Добавлен: 01 янв 2020, 22:43 | Скачали: 0
Сидеров: 0  [0 байт/сек]    Личеров: 0  [0 байт/сек]
Пред. тема | След. тема 

Автор
Сообщение

СообщениеДобавлено: 01 янв 2020, 22:43 

Ответить с цитатой 

Thomas Fersen, Qu4tre
Жанр: (Chanson Francaise/Pop)
Год выпуска диска: 1999
Производитель диска: France
Аудио кодек: FLAC
Тип рипа: image+.cue
Битрейт аудио: lossless
Продолжительность: 37'46"
Трэклист:
01. Irène
02. Les Malheurs du lion
03. Dugenou
04. Elisabeth
05. Monsieur
06. Marie-des-guérites
07. La Chauve-souris
08. Le Moucheron
09. Chez toi
10. La Chandelle
Код:
Exact Audio Copy V0.99 prebeta 5 from 4. May 2009
EAC extraction logfile from 5. December 2009, 15:10
Unknown Artist / Unknown Title
Used drive  : PLEXTOR DVDR   PX-755A   Adapter: 2  ID: 0
Read mode               : Secure
Utilize accurate stream : Yes
Defeat audio cache      : Yes
Make use of C2 pointers : No
Read offset correction                      : 30
Overread into Lead-In and Lead-Out          : No
Fill up missing offset samples with silence : Yes
Delete leading and trailing silent blocks   : No
Null samples used in CRC calculations       : No
Used interface                              : Native Win32 interface for Win NT & 2000
Used output format : Internal WAV Routines
Sample format      : 44.100 Hz; 16 Bit; Stereo
TOC of the extracted CD
     Track |   Start  |  Length  | Start sector | End sector
    ---------------------------------------------------------
        1  |  0:00.00 |  4:40.62 |         0    |    21061
        2  |  4:40.62 |  3:26.62 |     21062    |    36573
        3  |  8:07.49 |  3:54.72 |     36574    |    54195
        4  | 12:02.46 |  4:08.56 |     54196    |    72851
        5  | 16:11.27 |  3:54.14 |     72852    |    90415
        6  | 20:05.41 |  3:20.54 |     90416    |   105469
        7  | 23:26.20 |  3:37.10 |    105470    |   121754
        8  | 27:03.30 |  2:44.04 |    121755    |   134058
        9  | 29:47.34 |  3:19.01 |    134059    |   148984
       10  | 33:06.35 |  4:39.40 |    148985    |   169949
Range status and errors
Selected range
     Filename C:\Documents and Settings\Administrator\Desktop\Unknown Artist - Unknown Title.wav
     Peak level 100.0 %
     Range quality 99.9 %
     Copy CRC 9414142F
     Copy OK
No errors occurred
AccurateRip summary
Track  1  accurately ripped (confidence 16)  [DCA74907]
Track  2  accurately ripped (confidence 16)  [4E5341A9]
Track  3  accurately ripped (confidence 16)  [8E6E2CE4]
Track  4  accurately ripped (confidence 16)  [11C675E5]
Track  5  accurately ripped (confidence 16)  [111E45DB]
Track  6  accurately ripped (confidence 16)  [08843AAB]
Track  7  accurately ripped (confidence 17)  [6BD9A159]
Track  8  accurately ripped (confidence 16)  [9205F945]
Track  9  accurately ripped (confidence 16)  [F61BB42A]
Track 10  accurately ripped (confidence 16)  [5338E6CB]
All tracks accurately ripped
End of status report
Правила, инструкции, FAQ!!!
Торрент  Добавлен [01 янв 2020, 22:43] Скачать торрент Магнет ссылка
Скачать торрент
[ Размер 31.5 КБ / Просмотров 6 ]

Статус
Проверен 
 
Размер  196.76 МБ
Приватный: Нет (DHT включён)
.torrent скачан  0
 


     Отправить личное сообщение
   
Страница 1 из 1
Показать сообщения за:  Поле сортировки  
Начать новую тему Ответить на тему


Сейчас этот форум просматривают: нет зарегистрированных пользователей и гости: 0


Вы не можете начинать темы
Вы не можете отвечать на сообщения
Вы не можете редактировать свои сообщения
Вы не можете удалять свои сообщения
Вы не можете добавлять вложения

Перейти:  
cron