Начать новую тему Ответить на тему
Статистика раздачи
Размер: 186.53 МБ | Добавлен: 01 янв 2020, 23:06 | Скачали: 0
Сидеров: 0  [0 байт/сек]    Личеров: 0  [0 байт/сек]
Пред. тема | След. тема 

Автор
Сообщение

СообщениеДобавлено: 01 янв 2020, 23:06 

Ответить с цитатой 

Michel JONASZ et le KING SET / Michel JONASZ et le KING SET
Жанр: Chanson Francaise, Jazz
Носитель: CD
Год издания: 1998 (1967-1970)
Страна исполнителя (группы): France
Аудиокодек: FLAC (*.flac)
Тип рипа: image+.cue
Битрейт аудио: lossless
Продолжительность: 39:06
Источник (релизер): Oun CD
Наличие сканов в содержимом раздачи: нет
Треклист:
1. Apesanteur
2. Froiduglu
3. On a perdu un président
4. Il faut marier Marie, maman
5. Jezebel
6. Mon brouillard
7. Au bout de mon chemin
8. Fleur d'ombre
9. O mon amour du bout du monde
10. Mais dans un an ou deux
11. Le vent ne ramène jamais les nuages d’autrefois
12. Adieu la terre
13. Apesanteur (instrumental)
Код:
Exact Audio Copy V1.0 beta 3 from 29. August 2011
EAC extraction logfile from 12. December 2014, 18:14
Jonasz , Michel  / Michel Jonasz Et Le King Set
Used drive  : ASUS    DRW-24F1ST   a   Adapter: 4  ID: 0
Read mode               : Secure
Utilize accurate stream : Yes
Defeat audio cache      : Yes
Make use of C2 pointers : No
Read offset correction                      : 6
Overread into Lead-In and Lead-Out          : No
Fill up missing offset samples with silence : Yes
Delete leading and trailing silent blocks   : No
Null samples used in CRC calculations       : Yes
Used interface                              : Native Win32 interface for Win NT & 2000
Used output format              : User Defined Encoder
Selected bitrate                : 896 kBit/s
Quality                         : High
Add ID3 tag                     : No
Command line compressor         : C:\Program Files (x86)\Exact Audio Copy\FLAC\FLAC.EXE
Additional command line options : -V -8 -T "Date=%year%" -T "Genre=%genre%" %source%
TOC of the extracted CD
     Track |   Start  |  Length  | Start sector | End sector
    ---------------------------------------------------------
        1  |  0:00.01 |  3:51.12 |         1    |    17337
        2  |  3:51.13 |  2:47.39 |     17338    |    29901
        3  |  6:38.52 |  2:47.64 |     29902    |    42490
        4  |  9:26.41 |  2:41.23 |     42491    |    54588
        5  | 12:07.64 |  2:32.55 |     54589    |    66043
        6  | 14:40.44 |  2:39.56 |     66044    |    78024
        7  | 17:20.25 |  2:55.60 |     78025    |    91209
        8  | 20:16.10 |  2:55.69 |     91210    |   104403
        9  | 23:12.04 |  3:39.56 |    104404    |   120884
       10  | 26:51.60 |  2:33.24 |    120885    |   132383
       11  | 29:25.09 |  2:20.23 |    132384    |   142906
       12  | 31:45.32 |  3:28.55 |    142907    |   158561
       13  | 35:14.12 |  3:52.05 |    158562    |   175966
Range status and errors
Selected range
     Filename D:\MailCloud\_Flac\Jonasz\King Set\Jonasz , Michel  - Michel Jonasz Et Le King Set.wav
     Peak level 99.6 %
     Extraction speed 2.3 X
     Range quality 99.9 %
     Copy CRC 1C4C89A3
     Copy OK
No errors occurred
AccurateRip summary
Track  1  not present in database
Track  2  not present in database
Track  3  not present in database
Track  4  not present in database
Track  5  not present in database
Track  6  not present in database
Track  7  not present in database
Track  8  not present in database
Track  9  not present in database
Track 10  not present in database
Track 11  not present in database
Track 12  not present in database
Track 13  not present in database
None of the tracks are present in the AccurateRip database
End of status report
==== Log checksum 266DA62BF43E65CB55961DCF352569582FC89F6BBD926AAD8D51CA0A45D34125 ====
Код:
REM GENRE Blues
REM DISCID A4092A0D
REM COMMENT "ExactAudioCopy v1.0b3"
PERFORMER "Jonasz , Michel "
TITLE "Michel Jonasz Et Le King Set"
FILE "Jonasz , Michel  - Michel Jonasz Et Le King Set.flac" WAVE
  TRACK 01 AUDIO
    TITLE "(le King Star) Apesanteur (Charbonnier-Goldstein)"
    PERFORMER "Jonasz , Michel "
    FLAGS DCP
    INDEX 00 00:00:00
    INDEX 01 00:00:01
  TRACK 02 AUDIO
    TITLE "(le King Star) Froiduglu (Jonasz-Goldstein)"
    PERFORMER "Jonasz , Michel "
    FLAGS DCP
    INDEX 01 03:51:13
  TRACK 03 AUDIO
    TITLE "(le King Star) On A Perdu Un President (Lima-Mali-Goldstein-Saka)"
    PERFORMER "Jonasz , Michel "
    FLAGS DCP
    INDEX 01 06:38:52
  TRACK 04 AUDIO
    TITLE "(le King Star) Il Faut Marier Marie, Maman (Davert)"
    PERFORMER "Jonasz , Michel "
    FLAGS DCP
    INDEX 01 09:26:41
  TRACK 05 AUDIO
    TITLE "(le King Star) Jezebel (Aznavour-Shanklin)"
    PERFORMER "Jonasz , Michel "
    FLAGS DCP
    INDEX 01 12:07:64
  TRACK 06 AUDIO
    TITLE "(le King Star) Mon Brouillard (Jonasz-Goldstein)"
    PERFORMER "Jonasz , Michel "
    FLAGS DCP
    INDEX 01 14:40:44
  TRACK 07 AUDIO
    TITLE "(le King Star) Au Bout De Mon Chemin (Peigne-Goldstein)"
    PERFORMER "Jonasz , Michel "
    FLAGS DCP
    INDEX 01 17:20:25
  TRACK 08 AUDIO
    TITLE "(le King Star) Fleur D'ombre (Peigne-Charbonnier)"
    PERFORMER "Jonasz , Michel "
    FLAGS DCP
    INDEX 01 20:16:10
  TRACK 09 AUDIO
    TITLE "(michel Jonasz) O Mon Amour Du Bout Du Monde (Charbonnier-Goldstein)"
    PERFORMER "Jonasz , Michel "
    FLAGS DCP
    INDEX 01 23:12:04
  TRACK 10 AUDIO
    TITLE "(michel Jonasz) Mais Dans Un An Ou Deux (Jonasz-Goldstein)"
    PERFORMER "Jonasz , Michel "
    FLAGS DCP
    INDEX 01 26:51:60
  TRACK 11 AUDIO
    TITLE "(michel Jonasz) Le Vent Ne Ramene Jamais Les Nuages D'autrefois (Jonaszr-Gold..."
    PERFORMER "Jonasz , Michel "
    FLAGS DCP
    INDEX 01 29:25:09
  TRACK 12 AUDIO
    TITLE "(michel Jonasz) Adieu La Terre (Charbonnier-Goldstein)"
    PERFORMER "Jonasz , Michel "
    FLAGS DCP
    INDEX 01 31:45:32
  TRACK 13 AUDIO
    TITLE "Apesanteur (Instrumental) (Charbonnier-Goldstein)"
    PERFORMER "Jonasz , Michel "
    FLAGS DCP
    INDEX 01 35:14:12
Код:
Started at:  31. 12. 2014. - 18:14.47
1 file found
1 -===- D:\MailCloud\_Flac\Jonasz\King Set\Jonasz , Michel  - Michel Jonasz Et Le King Set.flac
  Extracted successfully
  Conclusion: this track is CDDA with probability 100%
  Tempfile successfully deleted.
Finished at:  31. 12. 2014. - 18:16.28 (operation time: 0:01.41)
Правила, инструкции, FAQ!!!
Торрент  Добавлен [01 янв 2020, 23:06] Скачать торрент Магнет ссылка
Скачать торрент
[ Размер 15.28 КБ / Просмотров 3 ]

Статус
Проверен 
 
Размер  186.53 МБ
Приватный: Нет (DHT включён)
.torrent скачан  0
 


     Отправить личное сообщение
   
Страница 1 из 1
Показать сообщения за:  Поле сортировки  
Начать новую тему Ответить на тему


Сейчас этот форум просматривают: нет зарегистрированных пользователей и гости: 0


Вы не можете начинать темы
Вы не можете отвечать на сообщения
Вы не можете редактировать свои сообщения
Вы не можете удалять свои сообщения
Вы не можете добавлять вложения

Перейти:  
cron