Начать новую тему Ответить на тему
Статистика раздачи
Размер: 464.2 МБ | Добавлен: 01 янв 2020, 22:50 | Скачали: 0
Сидеров: 0  [0 байт/сек]    Личеров: 0  [0 байт/сек]
Пред. тема | След. тема 

Автор
Сообщение

СообщениеДобавлено: 01 янв 2020, 22:50 

Ответить с цитатой 

Serge Reggiani - Reggiani
Жанр: Chanson Françcaise
Страна-производитель диска: France
Год издания диска: 2000
Издатель (лейбл): Polydor
Номер по каталогу: 549 060-2
Страна: France
Аудиокодек: FLAC (*.flac)
Тип рипа: image+.cue
Битрейт аудио: lossless
Продолжительность: 1:07:58
Источник (релизер): Авакс, Speedyclick
Наличие сканов в содержимом раздачи: да
Треклист:
01. Votre fille a vingt ans
02. Gaspard
03. La java des bombes atomiques
04. La maumariee
05. Il suffirait de presque rien
06. La ballade des pendus
07. Je voudrais pas crever
08. L'italien
09. Le pont Mirabeau
10. Ce n'est pas moi qui chante
11. Chanson de Maglia
12. Et la fete continue
13. Venise n'est pas en Italie
14. Cet amour
15. Sarah
16. Le deserteur
17. La vie c'est comme une dent
18. Les loups sont entres dans Paris
19. Le petit garcon
20. Arthur... ou t'as mis le corps
21. Ma solitude
22. Ma liberte
23. Les bienfaits de la lune
Серж Реджани (фр. Serge Reggiani; 2 мая 1922, Реджо-Эмилия, Италия — 23 июля 2004, Париж, Франция) — французский актёр, художник и певец итальянского происхождения. Один из величайших исполнителей французской песни. Данный диск - прижизненная компиляция.
Код:
Exact Audio Copy V1.0 beta 3 from 29. August 2011
EAC extraction logfile from 12. December 2011, 9:51
Serge Reggiani / Compilation
Used drive  : HL-DT-STDVDRAM GH10N   Adapter: 1  ID: 1
Read mode               : Secure
Utilize accurate stream : Yes
Defeat audio cache      : Yes
Make use of C2 pointers : No
Read offset correction                      : 667
Overread into Lead-In and Lead-Out          : No
Fill up missing offset samples with silence : Yes
Delete leading and trailing silent blocks   : No
Null samples used in CRC calculations       : Yes
Used interface                              : Native Win32 interface for Win NT & 2000
Used output format              : User Defined Encoder
Selected bitrate                : 1024 kBit/s
Quality                         : High
Add ID3 tag                     : Yes
Command line compressor         : C:\Program Files\Exact Audio Copy New\Flac\flac.exe
Additional command line options : -V -5 -T "artist=%artist%" -T "title=%title%" -T "album=%albumtitle%"  -T "tracknumber=%tracknr2%" -T "genre=%genre%" -5 %source%
TOC of the extracted CD
     Track |   Start  |  Length  | Start sector | End sector
    ---------------------------------------------------------
        1  |  0:00.00 |  2:51.42 |         0    |    12866
        2  |  2:51.42 |  3:04.53 |     12867    |    26719
        3  |  5:56.20 |  2:17.30 |     26720    |    37024
        4  |  8:13.50 |  3:22.47 |     37025    |    52221
        5  | 11:36.22 |  2:26.65 |     52222    |    63236
        6  | 14:03.12 |  3:39.43 |     63237    |    79704
        7  | 17:42.55 |  3:24.37 |     79705    |    95041
        8  | 21:07.17 |  3:59.63 |     95042    |   113029
        9  | 25:07.05 |  2:12.65 |    113030    |   122994
       10  | 27:19.70 |  0:51.15 |    122995    |   126834
       11  | 28:11.10 |  1:40.40 |    126835    |   134374
       12  | 29:51.50 |  1:33.10 |    134375    |   141359
       13  | 31:24.60 |  3:11.37 |    141360    |   155721
       14  | 34:36.22 |  5:13.10 |    155722    |   179206
       15  | 39:49.32 |  3:12.50 |    179207    |   193656
       16  | 43:02.07 |  4:09.43 |    193657    |   212374
       17  | 47:11.50 |  1:24.35 |    212375    |   218709
       18  | 48:36.10 |  4:55.57 |    218710    |   240891
       19  | 53:31.67 |  3:13.70 |    240892    |   255436
       20  | 56:45.62 |  4:41.18 |    255437    |   276529
       21  | 61:27.05 |  2:44.02 |    276530    |   288831
       22  | 64:11.07 |  2:31.05 |    288832    |   300161
       23  | 66:42.12 |  1:16.20 |    300162    |   305881
Range status and errors
Selected range
     Filename R:\EAC Rips\HENRI BEZA\Serge Reggiani - Reggiani\Serge Reggiani - Compilation.wav
     Peak level 100.0 %
     Extraction speed 2.1 X
     Range quality 100.0 %
     Test CRC 2D7C9AEC
     Copy CRC 2D7C9AEC
     Copy OK
No errors occurred
AccurateRip summary
Track  1  accurately ripped (confidence 5)  [3006F038]  (AR v1)
Track  2  accurately ripped (confidence 5)  [FD7CC9B9]  (AR v1)
Track  3  accurately ripped (confidence 5)  [96B21B2B]  (AR v1)
Track  4  accurately ripped (confidence 5)  [A01FD708]  (AR v1)
Track  5  accurately ripped (confidence 5)  [0FF7C134]  (AR v1)
Track  6  accurately ripped (confidence 5)  [E1A83741]  (AR v1)
Track  7  accurately ripped (confidence 5)  [53DE41F4]  (AR v1)
Track  8  accurately ripped (confidence 5)  [A8CC68A9]  (AR v1)
Track  9  accurately ripped (confidence 5)  [E889A36C]  (AR v1)
Track 10  accurately ripped (confidence 5)  [E67C438C]  (AR v1)
Track 11  accurately ripped (confidence 5)  [9C96577A]  (AR v1)
Track 12  accurately ripped (confidence 5)  [7ADE310A]  (AR v1)
Track 13  accurately ripped (confidence 5)  [08EFAD5D]  (AR v1)
Track 14  accurately ripped (confidence 5)  [5AD1F699]  (AR v1)
Track 15  accurately ripped (confidence 5)  [8A087DEF]  (AR v1)
Track 16  accurately ripped (confidence 4)  [707DB14C]  (AR v1)
Track 17  accurately ripped (confidence 5)  [22E44ABF]  (AR v1)
Track 18  accurately ripped (confidence 5)  [3F3C5460]  (AR v1)
Track 19  accurately ripped (confidence 5)  [AD7C4C27]  (AR v1)
Track 20  accurately ripped (confidence 5)  [DAB9669A]  (AR v1)
Track 21  accurately ripped (confidence 5)  [701BFAC8]  (AR v1)
Track 22  accurately ripped (confidence 5)  [CC9C4674]  (AR v1)
Track 23  accurately ripped (confidence 5)  [6615D055]  (AR v1)
All tracks accurately ripped
End of status report
---- CUETools DB Plugin V2.1.3
[CTDB TOCID: oCVcSKcMN3atArgZ7XdnKnxflZ4-] disk not present in database, Submit result: oCVcSKcMN3atArgZ7XdnKnxflZ4- has been uploaded
==== Log checksum C35F307BDF649703FE0B47D2EF25FFFA25B7FC1CF006ECC10E6AAB67D075A9F0 ====
Код:
AUDIOCHECKER v2.0 beta (build 457) - by Dester - opdester@freemail.hu
~~~~~~~~~~~~~~~~~~~~~~~~~~~~~~~~~~
-=== DO NOT EDIT THIS FILE! ===-
Path: ...\Serge Reggiani - Reggiani
1 -=- Serge Reggiani - Reggiani.flac -=- CDDA (100%)
174500852
Правила, инструкции, FAQ!!!
Торрент  Добавлен [01 янв 2020, 22:50] Скачать торрент Магнет ссылка
Скачать торрент
[ Размер 19.93 КБ / Просмотров 2 ]

Статус
Проверен 
 
Размер  464.2 МБ
Приватный: Нет (DHT включён)
.torrent скачан  0
 


     Отправить личное сообщение
   
Страница 1 из 1
Показать сообщения за:  Поле сортировки  
Начать новую тему Ответить на тему


Сейчас этот форум просматривают: нет зарегистрированных пользователей и гости: 0


Вы не можете начинать темы
Вы не можете отвечать на сообщения
Вы не можете редактировать свои сообщения
Вы не можете удалять свои сообщения
Вы не можете добавлять вложения

Перейти:  
cron