Начать новую тему Ответить на тему
Статистика раздачи
Размер: 432.29 МБ | Добавлен: 01 янв 2020, 23:06 | Скачали: 0
Сидеров: 0  [0 байт/сек]    Личеров: 0  [0 байт/сек]
Пред. тема | След. тема 

Автор
Сообщение

СообщениеДобавлено: 01 янв 2020, 23:06 

Ответить с цитатой 

Jean-Jacques Goldman - Chansons pour les pieds
Жанр: chanson française, pop
Год выпуска диска: 2001
Производитель диска: France
Аудио кодек: FLAC
Тип рипа: image+.cue
Битрейт аудио: lossless
Продолжительность: 1:03:31
Трэклист:
1. Ensemble
2. Et l'on n'y peut rien
3. Une poussière
4. La pluie
5. Tournent les violons
6. Un goût sur tes lèvres
7. Si je t'avais pas
8. C'est pas vrai
9. The Quo's in town tonite
10. Je voudrais vous revoir
11. Les p'tits chapeaux
12. Les choses
Chanson cachée à la fin de l'album : La vie c'est mieux quand on est amoureux
Доп. информация:
Код:
Exact Audio Copy V0.99 prebeta 5 from 4. May 2009
Отчёт EAC об извлечении, выполненном 21. января 2010, 21:49
jean-jacques goldman / chanson pour les pieds
Дисковод: PIONEER DVD-RW  DVR-110D   Adapter: 0  ID: 0
Режим чтения                 : Достоверность
Использование точного потока : Да
Отключение кэша аудио        : Да
Использование указателей C2  : Нет
Коррекция смещения при чтении                     : 48
Способность читать области Lead-in и Lead-out     : Нет
Заполнение пропущенных сэмплов тишиной            : Да
Удаление блоков с тишиной в начале и конце        : Нет
При вычислениях CRC использовались нулевые сэмплы : Да
Интерфейс                                         : Встроенный Win32-интерфейс для Win NT/2000
Выходной формат : Внутренние WAV-операции
Формат сэмплов  : 44.100 Гц; 16 бит; стерео
TOC извлечённого CD
     Трек |   Старт  | Длительность | Начальный сектор | Конечный сектор
    ---------------------------------------------------------------------
       1  |  0:00.00 |    3:59.41   |           0      |      17965
       2  |  3:59.41 |    3:38.33   |       17966      |      34348
       3  |  7:37.74 |    5:33.16   |       34349      |      59339
       4  | 13:11.15 |    8:25.71   |       59340      |      97285
       5  | 21:37.11 |    4:38.38   |       97286      |     118173
       6  | 26:15.49 |    4:29.46   |      118174      |     138394
       7  | 30:45.20 |    4:50.66   |      138395      |     160210
       8  | 35:36.11 |    4:56.21   |      160211      |     182431
       9  | 40:32.32 |    5:14.29   |      182432      |     206010
      10  | 45:46.61 |    5:12.07   |      206011      |     229417
      11  | 50:58.68 |    3:54.15   |      229418      |     246982
      12  | 54:53.08 |    8:38.45   |      246983      |     285877
Характеристики диапазона извлечения и сообщения об ошибках
Выбранный диапазон
     Имя файла C:\My Music\Goldman 2001\jean-jacques goldman - chanson pour les pieds.wav
     Пиковый уровень 100.0 %
     Качество диапазона 100.0 %
     CRC теста 48E5F1E1
     CRC копии 48E5F1E1
     Копирование... OK
Ошибок не произошло
Конец отчёта
Правила, инструкции, FAQ!!!
Торрент  Добавлен [01 янв 2020, 23:06] Скачать торрент Магнет ссылка
Скачать торрент
[ Размер 34.71 КБ / Просмотров 4 ]

Статус
Проверен 
 
Размер  432.29 МБ
Приватный: Нет (DHT включён)
.torrent скачан  0
 


     Отправить личное сообщение
   
Страница 1 из 1
Показать сообщения за:  Поле сортировки  
Начать новую тему Ответить на тему


Сейчас этот форум просматривают: нет зарегистрированных пользователей и гости: 0


Вы не можете начинать темы
Вы не можете отвечать на сообщения
Вы не можете редактировать свои сообщения
Вы не можете удалять свои сообщения
Вы не можете добавлять вложения

Перейти:  
cron