Начать новую тему Ответить на тему
Статистика раздачи
Размер: 219.88 МБ | Добавлен: 01 янв 2020, 22:43 | Скачали: 0
Сидеров: 5  [0 байт/сек]    Личеров: 1  [0 байт/сек]
Пред. тема | След. тема 

Автор
Сообщение

СообщениеДобавлено: 01 янв 2020, 22:43 

Ответить с цитатой 

Tété - Le Premier Clair De L'Aube
Жанр: Chanson française / Pop, Folk, Blues
Год издания диска: 2010
Издатель (лейбл): Jive Epic Group
Номер по каталогу: B0033TE0N8
Страна: Франция
Аудио кодек: FLAC (*.flac)
Тип рипа: tracks
Битрейт аудио: lossless
Продолжительность: 37:08
Источник (релизер): скачано из сети
Наличие сканов в содержимом раздачи: нет

Треклист:
1. L'Envie Et Le Dédain
2. Le Bal Des Boulets
3. 36'70'
4. Maudit Blues
5. Les Temps Egarés
6. Le Premier Clair De L'Aube
7. 1770
8. Doux Mojo
9. Ad Libitum
10. Petite Chanson
11. Serendipity 44
12. Bye-Bye
Код:
AUDIOCHECKER v2.0 beta (build 457) - by Dester - opdester@freemail.hu
~~~~~~~~~~~~~~~~~~~~~~~~~~~~~~~~~~
Started at: пятница, 01. 04. 2011. - 8:26.26
12 files found
01 -===- D:\Music2\Tete - 2010 - Le Premier Clair De L'Aube\01 - L'envie Et Le Dedain.flac
  Extracted successfully
  Conclusion: this track is CDDA with probability 100%
  Tempfile successfully deleted.
02 -===- D:\Music2\Tete - 2010 - Le Premier Clair De L'Aube\02 - Le Bal Des Boulets.flac
  Extracted successfully
  Conclusion: this track is CDDA with probability 100%
  Tempfile successfully deleted.
03 -===- D:\Music2\Tete - 2010 - Le Premier Clair De L'Aube\03 - 36'70.flac
  Extracted successfully
  Conclusion: this track is CDDA with probability 100%
  Tempfile successfully deleted.
04 -===- D:\Music2\Tete - 2010 - Le Premier Clair De L'Aube\04 - Maudit blues.flac
  Extracted successfully
  Conclusion: this track is CDDA with probability 100%
  Tempfile successfully deleted.
05 -===- D:\Music2\Tete - 2010 - Le Premier Clair De L'Aube\05 - Les Temps Egares.flac
  Extracted successfully
  Conclusion: this track is CDDA with probability 100%
  Tempfile successfully deleted.
06 -===- D:\Music2\Tete - 2010 - Le Premier Clair De L'Aube\06 - Le Premier Clair De L'aube.flac
  Extracted successfully
  Conclusion: this track is CDDA with probability 99%
  Tempfile successfully deleted.
07 -===- D:\Music2\Tete - 2010 - Le Premier Clair De L'Aube\07 - 1770.flac
  Extracted successfully
  Conclusion: this track is CDDA with probability 100%
  Tempfile successfully deleted.
08 -===- D:\Music2\Tete - 2010 - Le Premier Clair De L'Aube\08 - Doux Mojo.flac
  Extracted successfully
  Conclusion: this track is CDDA with probability 100%
  Tempfile successfully deleted.
09 -===- D:\Music2\Tete - 2010 - Le Premier Clair De L'Aube\09 - Ad Libitum.flac
  Extracted successfully
  Conclusion: this track is CDDA with probability 100%
  Tempfile successfully deleted.
10 -===- D:\Music2\Tete - 2010 - Le Premier Clair De L'Aube\10 - Petite chanson.flac
  Extracted successfully
  Conclusion: this track is CDDA with probability 100%
  Tempfile successfully deleted.
11 -===- D:\Music2\Tete - 2010 - Le Premier Clair De L'Aube\11 - Serendipity 44.flac
  Extracted successfully
  Conclusion: this track is CDDA with probability 100%
  Tempfile successfully deleted.
12 -===- D:\Music2\Tete - 2010 - Le Premier Clair De L'Aube\12 - Bye Bye.flac
  Extracted successfully
  Conclusion: this track is CDDA with probability 100%
  Tempfile successfully deleted.
Finished at: пятница, 01. 04. 2011. - 8:33.15 (operation time: 0:06.48)
Доп. информация: Рип проходит проверку базы Accurate Rip
Код:
[Verification date: 01.04.2011 8:25:00]
[Disc ID: 000f4b58-008ff526-9d08b40c]
Track [ CRC    ] Status
 01 [38716428] (00/03) No matches
 02 [b12c42c7] (00/03) No matches
 03 [cbb8e1c9] (00/03) No matches
 04 [2d5290e2] (00/03) No matches
 05 [37fa386e] (00/03) No matches
 06 [1ecb54b1] (00/03) No matches
 07 [5ac5c5c0] (00/03) No matches
 08 [32cff63e] (00/03) No matches
 09 [e41e180b] (00/03) No matches
 10 [2ca0592a] (00/03) No matches
 11 [f8a5523e] (00/03) No matches
 12 [40527192] (00/03) No matches
Offsetted by 48:
 01 [2a63a0be] (03/03) Accurately ripped as in pressing(s) #1
 02 [01267b68] (03/03) Accurately ripped as in pressing(s) #1
 03 [98644cde] (03/03) Accurately ripped as in pressing(s) #1
 04 [3d3a06d2] (03/03) Accurately ripped as in pressing(s) #1
 05 [9fd3506b] (03/03) Accurately ripped as in pressing(s) #1
 06 [eeea0ac2] (03/03) Accurately ripped as in pressing(s) #1
 07 [953eb53d] (03/03) Accurately ripped as in pressing(s) #1
 08 [d010476b] (03/03) Accurately ripped as in pressing(s) #1
 09 [fbf14e52] (03/03) Accurately ripped as in pressing(s) #1
 10 [0b0f9a7d] (03/03) Accurately ripped as in pressing(s) #1
 11 [15df90e1] (03/03) Accurately ripped as in pressing(s) #1
 12 [d864f3ad] (03/03) Accurately ripped as in pressing(s) #1
Track [ CRC32  ] [W/O NULL]
 -- [C882E227] [E2AFFDED]
 01 [D25EAFB3] [9C101FF5]
 02 [12809BAD] [C3AE4ECD]
 03 [59AADF39] [EF33B699]
 04 [EA8E8B19] [448A0BAE]
 05 [E40C3528] [4B841A44]
 06 [65B078F1] [471B36FF]
 07 [99CE3CE4] [3B5BA83E]
 08 [B09C9D11] [95DF5882]
 09 [0F39FC46] [A59A98C1]
 10 [4FFC8A39] [F28BDE21]
 11 [1D7C48BC] [73F39172]
 12 [D887A815] [DF769449]
Tété родился в столице Сенегала, Дакаре, 25 июля 1975 г. На языке народа волоф (один из официальных языков Сенегала) его имя означает «проводник» / «наставник».
После развода родителей Tété с матерью переехал в город Сен-Дизье на востоке Франции, где и провел большую часть детства.
По мнению Мартина Месонье [Martin Messonnier], музыкального продюсера и документалиста, Tété «один из немногих молодых авторов-исполнителей, делающих
что-то по-настоящему новое». Его уникальный стиль во многом сформировался под влиянием The Beatles и великих джазменов, которых слушала его мама, а позднее
под влиянием исполнителей хип-хопа и современного французского шансона, популярных во Франции в его школьные годы.
Освоив в 16 лет гитару, вдохновленный произведениями таких групп и исполнителей, как Bob Dylan, Jimi Hendrix, Bob Marley, Lenny Kravitz, Serge Gainsbourg и Queen,
Tété создает свои первые композиции. Два года спустя, открыв для себя творчество Keziah Jones, Tété решает сделать музыку своей профессией. Tété вместе со своими
приятелями начинает исполнять музыку и тексты собственного сочинения в кафе и барах. Tété много и довольно успешно выступает в северо-восточных городах Франции,
а в 1998 г. приезжает в Париж, где его и замечают рекруты Sony/Epic.
На сегодняшний день, считаясь одним из лучших авторов-исполнителей во Франции, Tété продал более полумиллиона записей и за один год 5 раз собрал концертный зал
Olympia в Париже. Названная критиками «невероятно человеческой», его музыка представляет собой смесь популярной музыки, фолка и блюза. Сам Tété с иронией называет
себя «трубадуром и создателем pop-folk-bluesy песен с претензией на интеллектуальность». Неудивительно, что Tété назвали французским Джефом Бакли [Jeff Buckley].
Его индивидуальность отражается в музыке, которую он создает, и, по словам Tété, «она должна иметь душу».
Информация взята отсюда: https://rutracker.org/forum/viewtopic.php?t=2923636
Коллекция из 4 альбомов в mp3
Другие альбомы Tété в lossless:
(2001) L'air de rien
(2003) A la faveur de l'automne
Правила, инструкции, FAQ!!!
Торрент  Добавлен [01 янв 2020, 22:43] Скачать торрент Магнет ссылка
Скачать торрент
[ Размер 18.51 КБ / Просмотров 1 ]

Статус
Проверен 
 
Размер  219.88 МБ
Приватный: Нет (DHT включён)
.torrent скачан  0
 


     Отправить личное сообщение
   
Страница 1 из 1
Показать сообщения за:  Поле сортировки  
Начать новую тему Ответить на тему


Сейчас этот форум просматривают: нет зарегистрированных пользователей и гости: 0


Вы не можете начинать темы
Вы не можете отвечать на сообщения
Вы не можете редактировать свои сообщения
Вы не можете удалять свои сообщения
Вы не можете добавлять вложения

Перейти:  
cron