Начать новую тему Ответить на тему
Статистика раздачи
Размер: 592.11 МБ | Добавлен: 01 янв 2020, 22:46 | Скачали: 0
Сидеров: 0  [0 байт/сек]    Личеров: 0  [0 байт/сек]
Пред. тема | След. тема 

Автор
Сообщение

СообщениеДобавлено: 01 янв 2020, 22:46 

Ответить с цитатой 

Michel Polnareff - Ze (re)Tour 2007 (2 CD)
Жанр: Chanson Française
Год выпуска диска: 2007
Производитель диска: France
Аудио кодек: FLAC
Тип рипа: image+.cue
Битрейт аудио: lossless
Трэклист:
01. Intro
02. Je suis un homme
03. La poupée qui fait non
04. L'amour avec toi
05. Sous quelle étoile suis-je né ?
06. Tam-Tam (l'homme préhisto)
07. L'homme qui pleurait des larmes de verre
08. Qui a tué Grand' Maman ?
09. Lettre à France
10. Love me please love me
Код:
Exact Audio Copy V0.99 prebeta 5 from 4. May 2009
EAC extraction logfile from 17. December 2009, 20:11
Michel Polnareff / Ze (re) Tour 2007 (CD1)
Used drive  : PLEXTOR DVDR   PX-755A   Adapter: 2  ID: 0
Read mode               : Secure
Utilize accurate stream : Yes
Defeat audio cache      : Yes
Make use of C2 pointers : No
Read offset correction                      : 30
Overread into Lead-In and Lead-Out          : No
Fill up missing offset samples with silence : Yes
Delete leading and trailing silent blocks   : No
Null samples used in CRC calculations       : No
Used interface                              : Native Win32 interface for Win NT & 2000
Used output format : Internal WAV Routines
Sample format      : 44.100 Hz; 16 Bit; Stereo
TOC of the extracted CD
     Track |   Start  |  Length  | Start sector | End sector
    ---------------------------------------------------------
        1  |  0:00.00 |  1:13.05 |         0    |     5479
        2  |  1:13.05 |  4:10.29 |      5480    |    24258
        3  |  5:23.34 |  3:41.28 |     24259    |    40861
        4  |  9:04.62 |  3:02.14 |     40862    |    54525
        5  | 12:07.01 |  6:02.45 |     54526    |    81720
        6  | 18:09.46 |  5:44.45 |     81721    |   107565
        7  | 23:54.16 |  4:03.03 |    107566    |   125793
        8  | 27:57.19 |  3:57.48 |    125794    |   143616
        9  | 31:54.67 |  4:35.43 |    143617    |   164284
       10  | 36:30.35 |  7:17.07 |    164285    |   197066
Range status and errors
Selected range
     Filename C:\Documents and Settings\Administrator\Desktop\Michel Polnareff - Ze (re) Tour 2007 (CD1).wav
     Peak level 100.0 %
     Range quality 100.0 %
     Copy CRC 34864BA1
     Copy OK
No errors occurred
AccurateRip summary
Track  1  accurately ripped (confidence 1)  [56404029]
Track  2  accurately ripped (confidence 1)  [A6F19A0C]
Track  3  accurately ripped (confidence 1)  [16F19CB6]
Track  4  accurately ripped (confidence 1)  [17DC32F2]
Track  5  accurately ripped (confidence 1)  [B54E532E]
Track  6  accurately ripped (confidence 1)  [58EF98F9]
Track  7  accurately ripped (confidence 1)  [46AA5E73]
Track  8  accurately ripped (confidence 1)  [191EFC5E]
Track  9  accurately ripped (confidence 1)  [04F8E808]
Track 10  accurately ripped (confidence 1)  [B39881DE]
All tracks accurately ripped
End of status report
Трэклист:
01. Le bal des Laze
02. La mouche
03. Dans la rue
04. Holidays
05. Je t'aime
06. Y'a qu'un ch'veu
07. Goodbye Marylou
08. Hey you woman
09. Tout, tout pour ma chérie
10. On ira tous au paradis
Код:
Exact Audio Copy V0.99 prebeta 5 from 4. May 2009
EAC extraction logfile from 17. December 2009, 20:25
Michel Polnareff / Ze (re) Tour 2007 (CD2)
Used drive  : PLEXTOR DVDR   PX-755A   Adapter: 2  ID: 0
Read mode               : Secure
Utilize accurate stream : Yes
Defeat audio cache      : Yes
Make use of C2 pointers : No
Read offset correction                      : 30
Overread into Lead-In and Lead-Out          : No
Fill up missing offset samples with silence : Yes
Delete leading and trailing silent blocks   : No
Null samples used in CRC calculations       : No
Used interface                              : Native Win32 interface for Win NT & 2000
Used output format : Internal WAV Routines
Sample format      : 44.100 Hz; 16 Bit; Stereo
TOC of the extracted CD
     Track |   Start  |  Length  | Start sector | End sector
    ---------------------------------------------------------
        1  |  0:00.00 |  6:11.11 |         0    |    27835
        2  |  6:11.11 |  3:40.28 |     27836    |    44363
        3  |  9:51.39 |  3:30.70 |     44364    |    60183
        4  | 13:22.34 |  3:11.04 |     60184    |    74512
        5  | 16:33.38 |  4:44.07 |     74513    |    95819
        6  | 21:17.45 |  6:29.06 |     95820    |   125000
        7  | 27:46.51 |  6:10.41 |    125001    |   152791
        8  | 33:57.17 |  8:19.35 |    152792    |   190251
        9  | 42:16.52 |  4:16.35 |    190252    |   209486
       10  | 46:33.12 |  5:46.67 |    209487    |   235503
Range status and errors
Selected range
     Filename C:\Documents and Settings\Administrator\Desktop\Michel Polnareff - Ze (re) Tour 2007 (CD2).wav
     Peak level 100.0 %
     Range quality 100.0 %
     Copy CRC 9127C768
     Copy OK
No errors occurred
AccurateRip summary
Track  1  accurately ripped (confidence 1)  [648F517C]
Track  2  accurately ripped (confidence 1)  [EEB2BA5D]
Track  3  accurately ripped (confidence 1)  [03B5E14C]
Track  4  accurately ripped (confidence 1)  [63252957]
Track  5  accurately ripped (confidence 1)  [D27DD46E]
Track  6  accurately ripped (confidence 1)  [49077264]
Track  7  accurately ripped (confidence 1)  [0256F0EC]
Track  8  accurately ripped (confidence 1)  [70505BE1]
Track  9  accurately ripped (confidence 1)  [D4544E34]
Track 10  accurately ripped (confidence 1)  [B75DF287]
All tracks accurately ripped
End of status report
Правила, инструкции, FAQ!!!
Торрент  Добавлен [01 янв 2020, 22:46] Скачать торрент Магнет ссылка
Скачать торрент
[ Размер 24.35 КБ / Просмотров 4 ]

Статус
Проверен 
 
Размер  592.11 МБ
Приватный: Нет (DHT включён)
.torrent скачан  0
 


     Отправить личное сообщение
   
Страница 1 из 1
Показать сообщения за:  Поле сортировки  
Начать новую тему Ответить на тему


Сейчас этот форум просматривают: нет зарегистрированных пользователей и гости: 0


Вы не можете начинать темы
Вы не можете отвечать на сообщения
Вы не можете редактировать свои сообщения
Вы не можете удалять свои сообщения
Вы не можете добавлять вложения

Перейти:  
cron