Начать новую тему Ответить на тему
Статистика раздачи
Размер: 266.91 МБ | Добавлен: 01 янв 2020, 23:08 | Скачали: 1
Сидеров: 0  [0 байт/сек]    Личеров: 0  [0 байт/сек]
Пред. тема | След. тема 

Автор
Сообщение

СообщениеДобавлено: 01 янв 2020, 23:08 

Ответить с цитатой 

Henri Salvador - Ma chère et tendre
Жанр: chanson française
Год выпуска диска: 2003
Производитель диска: Россия
Аудио кодек: FLAC
Тип рипа: image+.cue
Продолжительность: 44:41
01. Ma chère et tendre
02. Vous
03. C'était un jour comme les autres
04. Le voyage dans le bonheur
05. Toi
06. J'ai tant rêvé
07. Quand un artiste
08. Sans toi
09. Ailleurs
10. Itinéraire
11. Tu es venue
12. Bormes-les-mimosas
13. Les chemins de la nuit
14. Dans tes yeux
Доп. информация:
Код:
Exact Audio Copy V0.99 prebeta 5 from 4. May 2009
Отчёт EAC об извлечении, выполненном 5. января 2010, 12:40
Henri Salvador / Ma chere et tendre
Дисковод: PIONEER DVD-RW  DVR-110D   Adapter: 0  ID: 0
Режим чтения                 : Достоверность
Использование точного потока : Да
Отключение кэша аудио        : Да
Использование указателей C2  : Нет
Коррекция смещения при чтении                     : 48
Способность читать области Lead-in и Lead-out     : Нет
Заполнение пропущенных сэмплов тишиной            : Да
Удаление блоков с тишиной в начале и конце        : Нет
При вычислениях CRC использовались нулевые сэмплы : Да
Интерфейс                                         : Встроенный Win32-интерфейс для Win NT/2000
Выходной формат : Внутренние WAV-операции
Формат сэмплов  : 44.100 Гц; 16 бит; стерео
TOC извлечённого CD
     Трек |   Старт  | Длительность | Начальный сектор | Конечный сектор
    ---------------------------------------------------------------------
       1  |  0:00.00 |    2:44.31   |           0      |      12330
       2  |  2:44.31 |    2:38.61   |       12331      |      24241
       3  |  5:23.17 |    3:02.45   |       24242      |      37936
       4  |  8:25.62 |    3:16.47   |       37937      |      52683
       5  | 11:42.34 |    3:09.67   |       52684      |      66925
       6  | 14:52.26 |    3:42.08   |       66926      |      83583
       7  | 18:34.34 |    2:59.74   |       83584      |      97082
       8  | 21:34.33 |    4:06.58   |       97083      |     115590
       9  | 25:41.16 |    3:15.57   |      115591      |     130272
      10  | 28:56.73 |    3:30.35   |      130273      |     146057
      11  | 32:27.33 |    2:55.58   |      146058      |     159240
      12  | 35:23.16 |    3:28.45   |      159241      |     174885
      13  | 38:51.61 |    2:59.35   |      174886      |     188345
      14  | 41:51.21 |    2:49.74   |      188346      |     201094
      15  | 47:13.20 |    5:09.23   |      212495      |     235692
Характеристики диапазона извлечения и сообщения об ошибках
Выбранный диапазон
     Имя файла C:\Documents and Settings\Евгений\Рабочий стол\Salvador 2003\Henri Salvador - Ma chere et tendre.wav
     Пиковый уровень 97.5 %
     Качество диапазона 100.0 %
     CRC теста 35285A01
     CRC копии 35285A01
     Копирование... OK
Ошибок не произошло
Конец отчёта
Правила, инструкции, FAQ!!!
Торрент  Добавлен [01 янв 2020, 23:08] Скачать торрент Магнет ссылка
Скачать торрент
[ Размер 21.5 КБ / Просмотров 4 ]

Статус
Проверен 
 
Размер  266.91 МБ
Приватный: Нет (DHT включён)
.torrent скачан  1
 


     Отправить личное сообщение
   
Страница 1 из 1
Показать сообщения за:  Поле сортировки  
Начать новую тему Ответить на тему


Сейчас этот форум просматривают: нет зарегистрированных пользователей и гости: 0


Вы не можете начинать темы
Вы не можете отвечать на сообщения
Вы не можете редактировать свои сообщения
Вы не можете удалять свои сообщения
Вы не можете добавлять вложения

Перейти:  
cron