Начать новую тему Ответить на тему
Статистика раздачи
Размер: 263.83 МБ | Добавлен: 01 янв 2020, 22:56 | Скачали: 0
Сидеров: 1  [0 байт/сек]    Личеров: 0  [0 байт/сек]
Пред. тема | След. тема 

Автор
Сообщение

СообщениеДобавлено: 01 янв 2020, 22:56 

Ответить с цитатой 

Gilbert Bécaud - Suite
Жанр: chanson française
Год выпуска диска: 2005
Производитель диска: France
Аудио кодек: FLAC
Тип рипа: image+.cue
Продолжительность: 0:38:47
торрент был перезалит 5 января 2010в 16-40
01. C'est quoi le temps
02. Crédo
03. Mustapha Dupont
04. Je me fous de la fin du monde
05. Le dernier été
06. Lorsque viendra le dernier jour
07. T'es venu de loin
08. De quoi demain sera-t-il fait
09. Le chemin
10. Pour qui vielle l'étoile
11. Je t'aimerai jusqu'à la fin du monde
Доп. информация:
Код:
Exact Audio Copy V0.99 prebeta 5 from 4. May 2009
Отчёт EAC об извлечении, выполненном 5. января 2010, 16:19
Gilbert Becaud / Suite
Дисковод: PIONEER DVD-RW  DVR-110D   Adapter: 0  ID: 0
Режим чтения                 : Достоверность
Использование точного потока : Да
Отключение кэша аудио        : Да
Использование указателей C2  : Нет
Коррекция смещения при чтении                     : 48
Способность читать области Lead-in и Lead-out     : Нет
Заполнение пропущенных сэмплов тишиной            : Да
Удаление блоков с тишиной в начале и конце        : Нет
При вычислениях CRC использовались нулевые сэмплы : Да
Интерфейс                                         : Встроенный Win32-интерфейс для Win NT/2000
Выходной формат : Внутренние WAV-операции
Формат сэмплов  : 44.100 Гц; 16 бит; стерео
TOC извлечённого CD
     Трек |   Старт  | Длительность | Начальный сектор | Конечный сектор
    ---------------------------------------------------------------------
       1  |  0:00.00 |    3:35.73   |           0      |      16197
       2  |  3:35.73 |    3:34.69   |       16198      |      32316
       3  |  7:10.67 |    4:08.20   |       32317      |      50936
       4  | 11:19.12 |    3:25.59   |       50937      |      66370
       5  | 14:44.71 |    3:13.65   |       66371      |      80910
       6  | 17:58.61 |    2:45.52   |       80911      |      93337
       7  | 20:44.38 |    4:36.36   |       93338      |     114073
       8  | 25:20.74 |    4:43.41   |      114074      |     135339
       9  | 30:04.40 |    2:29.02   |      135340      |     146516
      10  | 32:33.42 |    3:00.34   |      146517      |     160050
      11  | 35:34.01 |    3:13.42   |      160051      |     174567
Характеристики диапазона извлечения и сообщения об ошибках
Выбранный диапазон
     Имя файла C:\My Music\Becaud\Gilbert Becaud - Suite.wav
     Пиковый уровень 100.0 %
     Качество диапазона 100.0 %
     CRC теста 4388C43F
     CRC копии 4388C43F
     Копирование... OK
Ошибок не произошло
Конец отчёта
Правила, инструкции, FAQ!!!
Торрент  Добавлен [01 янв 2020, 22:56] Скачать торрент Магнет ссылка
Скачать торрент
[ Размер 21.36 КБ / Просмотров 3 ]

Статус
Проверен 
 
Размер  263.83 МБ
Приватный: Нет (DHT включён)
.torrent скачан  0
 


     Отправить личное сообщение
   
Страница 1 из 1
Показать сообщения за:  Поле сортировки  
Начать новую тему Ответить на тему


Сейчас этот форум просматривают: нет зарегистрированных пользователей и гости: 0


Вы не можете начинать темы
Вы не можете отвечать на сообщения
Вы не можете редактировать свои сообщения
Вы не можете удалять свои сообщения
Вы не можете добавлять вложения

Перейти:  
cron