Начать новую тему Ответить на тему
Статистика раздачи
Размер: 327.87 МБ | Добавлен: 01 янв 2020, 22:43 | Скачали: 0
Сидеров: 0  [0 байт/сек]    Личеров: 0  [0 байт/сек]
Пред. тема | След. тема 

Автор
Сообщение

СообщениеДобавлено: 01 янв 2020, 22:43 

Ответить с цитатой 

Aldebert / Les paradis disponibles
Жанр: Chanson française
Страна-производитель диска: E.U.
Год издания: 2006
Издатель (лейбл): Warner Music France
Номер по каталогу: 0825646372621
Страна: Франция
Аудиокодек: FLAC (*.flac)
Тип рипа: image+.cue
Битрейт аудио: lossless
Продолжительность: 52:06.000
Источник (релизер): nikolianidvora
Наличие сканов в содержимом раздачи: да
Треклист:
01. L'appétit du bonheur [3:43]
02. L'inventaire [4:03]
03. Lulue Marlène [3:14]
04. C'est comment là-haut ? [3:56]
05. Les bulles de savon [3:21]
06. L'homme songe [3:30]
07. Mon père ce héros [3:24]
08. Des chatons dans un panier [4:24]
09. L'album photo [3:24]
10. Amoureuse [3:34]
11. A petit feu [3:05]
12. La première fois [3:29]
13. La lettre [8:52]
14. Mise amour (hidden track)
Код:
Exact Audio Copy V0.99 prebeta 4 from 23. January 2008
Отчёт EAC об извлечении, выполненном 19. июля 2012, 15:56
Aldebert / Les paradis disponibles
Дисковод: PIONEER DVD-RW  DVRKD08   Adapter: 1  ID: 0
Режим чтения                 : Достоверность
Использование точного потока : Да
Отключение кэша аудио        : Да
Использование указателей C2  : Нет
Коррекция смещения при чтении                     : 48
Способность читать области Lead-in и Lead-out     : Нет
Заполнение пропущенных сэмплов тишиной            : Да
Удаление блоков с тишиной в начале и конце        : Нет
При вычислениях CRC использовались нулевые сэмплы : Нет
Интерфейс                                         : Встроенный Win32-интерфейс для Win NT/2000
Выходной формат : Внутренние WAV-операции
Формат сэмплов  : 44.100 Гц; 16 бит; стерео
TOC извлечённого CD
     Трек |   Старт  | Длительность | Начальный сектор | Конечный сектор
    ---------------------------------------------------------------------
       1  |  0:00.00 |    3:43.37   |           0      |      16761
       2  |  3:43.37 |    4:03.48   |       16762      |      35034
       3  |  7:47.10 |    3:14.37   |       35035      |      49621
       4  | 11:01.47 |    3:56.73   |       49622      |      67394
       5  | 14:58.45 |    3:21.03   |       67395      |      82472
       6  | 18:19.48 |    3:30.34   |       82473      |      98256
       7  | 21:50.07 |    3:24.33   |       98257      |     113589
       8  | 25:14.40 |    4:24.28   |      113590      |     133417
       9  | 29:38.68 |    3:24.66   |      133418      |     148783
      10  | 33:03.59 |    3:34.23   |      148784      |     164856
      11  | 36:38.07 |    3:05.55   |      164857      |     178786
      12  | 39:43.62 |    3:29.36   |      178787      |     194497
      13  | 43:13.23 |    8:52.52   |      194498      |     234449
Характеристики диапазона извлечения и сообщения об ошибках
Выбранный диапазон
     Имя файла D:\Music\Aldebert\lossless\2006 - Les paradis disponibles\Aldebert - Les paradis disponibles.wav
     Пиковый уровень 96.6 %
     Качество диапазона 100.0 %
     CRC копии 9ECC9C56
     Копирование... OK
Ошибок не произошло
Конец отчёта
Код:
REM GENRE "Chanson francaise"
REM DATE 2006
REM DISCID 9F0C360D
REM COMMENT "ExactAudioCopy v0.99pb4"
PERFORMER "Aldebert"
TITLE "Les paradis disponibles"
FILE "Aldebert - Les paradis disponibles.flac" WAVE
  TRACK 01 AUDIO
    TITLE "L'appetit du bonheur"
    PERFORMER "Aldebert"
    INDEX 01 00:00:00
  TRACK 02 AUDIO
    TITLE "L'inventaire"
    PERFORMER "Aldebert"
    INDEX 01 03:43:37
  TRACK 03 AUDIO
    TITLE "Lulue Marlene"
    PERFORMER "Aldebert"
    INDEX 01 07:47:10
  TRACK 04 AUDIO
    TITLE "C'est comment la-haut ?"
    PERFORMER "Aldebert"
    INDEX 01 11:01:47
  TRACK 05 AUDIO
    TITLE "Les bulles de savon"
    PERFORMER "Aldebert"
    INDEX 01 14:58:45
  TRACK 06 AUDIO
    TITLE "L'homme songe"
    PERFORMER "Aldebert"
    INDEX 01 18:19:48
  TRACK 07 AUDIO
    TITLE "Mon pere ce heros"
    PERFORMER "Aldebert"
    INDEX 01 21:50:07
  TRACK 08 AUDIO
    TITLE "Des chatons dans un panier"
    PERFORMER "Aldebert"
    INDEX 01 25:14:40
  TRACK 09 AUDIO
    TITLE "L'album photo"
    PERFORMER "Aldebert"
    INDEX 01 29:38:68
  TRACK 10 AUDIO
    TITLE "Amoureuse"
    PERFORMER "Aldebert"
    INDEX 01 33:03:59
  TRACK 11 AUDIO
    TITLE "A petit feu"
    PERFORMER "Aldebert"
    INDEX 01 36:38:07
  TRACK 12 AUDIO
    TITLE "La premiere fois"
    PERFORMER "Aldebert"
    INDEX 01 39:43:62
  TRACK 13 AUDIO
    TITLE "La lettre"
    PERFORMER "Aldebert"
    INDEX 01 43:13:23
Доп. информация: (Chanson française) Aldebert - Enfantillages - 2008, FLAC (image+.cue), lossless
(Chanson française) Aldebert - Дискография (8 альбомов) - 2000-2011, MP3, 128-320 kbps
Оф. сайт: http://www.aldebert.com/
Правила, инструкции, FAQ!!!
Торрент  Добавлен [01 янв 2020, 22:43] Скачать торрент Магнет ссылка
Скачать торрент
[ Размер 14.09 КБ / Просмотров 2 ]

Статус
Проверен 
 
Размер  327.87 МБ
Приватный: Нет (DHT включён)
.torrent скачан  0
 


     Отправить личное сообщение
   
Страница 1 из 1
Показать сообщения за:  Поле сортировки  
Начать новую тему Ответить на тему


Сейчас этот форум просматривают: нет зарегистрированных пользователей и гости: 0


Вы не можете начинать темы
Вы не можете отвечать на сообщения
Вы не можете редактировать свои сообщения
Вы не можете удалять свои сообщения
Вы не можете добавлять вложения

Перейти:  
cron